<?xml version="1.0" standalone="no"?>
<!DOCTYPE svg PUBLIC "-//W3C//DTD SVG 1.1//EN" "http://www.w3.org/Graphics/SVG/1.1/DTD/svg11.dtd" >
<svg>
<metadata>
Created by FontForge 20090622 at Mon Jul 11 16:17:26 2016
 By deploy user
&#194;&#169; 2006 Microsoft Corporation. All Rights Reserved.
</metadata>
<defs>
<font id="TrebuchetMS-Italic" horiz-adv-x="1074" >
  <font-face 
    font-family="Trebuchet MS"
    font-weight="400"
    font-style="italic"
    font-stretch="normal"
    units-per-em="2048"
    panose-1="2 11 6 3 2 2 2 9 2 4"
    ascent="1638"
    descent="-410"
    x-height="1071"
    cap-height="1464"
    bbox="-225 -528 2269 1937"
    underline-thickness="127"
    underline-position="-198"
    slope="-10"
    unicode-range="U+0020-U+FB02"
  />
    <missing-glyph />
    <glyph glyph-name="glyph0" horiz-adv-x="1024" 
d="M128 350v768h768v-768h-768zM256 478h512v512h-512v-512z" />
    <glyph glyph-name="glyph1" horiz-adv-x="0" 
 />
    <glyph glyph-name="glyph2" horiz-adv-x="752" 
 />
    <glyph glyph-name="space" unicode=" " horiz-adv-x="617" 
 />
    <glyph glyph-name="exclam" unicode="!" horiz-adv-x="752" 
d="M351 382h-71q6 364 18 490t27 209l73 410h226l-71 -409q-33 -192 -202 -700zM274 263q59 0 100.5 -41.5t41.5 -100.5t-41.5 -100t-100.5 -41t-100.5 41t-41.5 100t41.5 100.5t100.5 41.5z" />
    <glyph glyph-name="quotedbl" unicode="&#x22;" horiz-adv-x="665" 
d="M326 1086h-133l43 381h184zM656 1086h-133l43 381h184z" />
    <glyph glyph-name="numbersign" unicode="#" 
d="M937 947l-99 -393h161v-128h-194l-124 -446h-127l124 446h-297l-124 -446h-130l123 446h-155v128h188l99 393h-172v128h205l102 412h131l-103 -412h297l103 412h127l-103 -412h175v-128h-207zM513 947l-99 -393h297l99 393h-297z" />
    <glyph glyph-name="dollar" unicode="$" horiz-adv-x="985" 
d="M517 -22l-28 -159h-156l28 162q-153 20 -245 66l60 192q43 -34 128.5 -58t164.5 -24q119 0 191 58t72 160q0 85 -54.5 150t-186.5 160.5t-191.5 177t-59.5 204.5q0 173 98 283t266 134l36 202h156l-35 -198q179 -11 228 -37l-57 -194q-28 23 -94 43t-123 20
q-128 0 -202 -58t-74 -167q0 -46 23.5 -89t63.5 -77.5t164.5 -127.5t183 -189.5t58.5 -224.5q0 -179 -109.5 -284.5t-305.5 -124.5z" />
    <glyph glyph-name="percent" unicode="%" horiz-adv-x="1229" 
d="M143 -20h-127l1149 1511h126zM123 1047q0 176 84 310t272 134q218 0 218 -245q0 -181 -92 -311.5t-256 -130.5q-226 0 -226 243zM250 1064q0 -158 108 -158q114 0 164.5 113t50.5 227q0 143 -115 143q-92 0 -150 -97t-58 -228zM651 225q0 178 84 311.5t272 133.5
q219 0 219 -245q0 -176 -90.5 -309t-258.5 -133q-226 0 -226 242zM778 243q0 -158 108 -158q114 0 164.5 113t50.5 227q0 143 -115 143q-94 0 -151 -100.5t-57 -224.5z" />
    <glyph glyph-name="ampersand" unicode="&#x26;" horiz-adv-x="1446" 
d="M870 51q-158 -71 -342 -71q-175 0 -280.5 93.5t-105.5 254.5q0 301 240 502q-96 114 -96 227q0 203 135.5 318.5t360.5 115.5q174 0 250 -48l-54 -186q-89 84 -191 84q-146 0 -229.5 -75.5t-83.5 -211.5q0 -101 82 -173h372l32 183l197 29l-40 -215h249l-28 -160h-249
l-39 -189q-16 -77 -23.5 -139t-7.5 -111q0 -129 115 -129q79 0 148 52v-182q-78 -40 -224 -40q-115 0 -188 71zM899 718h-398q-154 -160 -154 -347q0 -105 70.5 -163t188.5 -58q136 0 212 49v20q0 42 10 95z" />
    <glyph glyph-name="quotesingle" unicode="'" horiz-adv-x="327" 
d="M325 1086h-133l43 381h184z" />
    <glyph glyph-name="parenleft" unicode="(" horiz-adv-x="752" 
d="M771 1475v-83q-192 -211 -292 -554t-100 -751q0 -247 81 -410v-105q-126 97 -206 290t-80 415q0 335 176 700.5t421 497.5z" />
    <glyph glyph-name="parenright" unicode=")" horiz-adv-x="752" 
d="M25 -428v105q177 139 293.5 536.5t116.5 736.5q0 269 -89 442v83q137 -60 216 -272.5t79 -442.5q0 -337 -174 -679t-442 -509z" />
    <glyph glyph-name="asterisk" unicode="*" horiz-adv-x="752" 
d="M714 1127l-173 -3l158 -105l47 -62l-122 -104l-54 70l-82 159l-91 -162l-43 -64l-131 101l50 69l158 83l-176 27l-90 32l72 150l96 -37l125 -95l-63 205v79l176 -1v-75l-60 -211l158 107l74 27l57 -161z" />
    <glyph glyph-name="plus" unicode="+" 
d="M611 706h349v-141h-349v-345h-141v345h-348v141h348v343h141v-343z" />
    <glyph glyph-name="comma" unicode="," horiz-adv-x="752" 
d="M182 -335l-44 76q193 132 193 239q0 35 -23 75q-76 45 -76 116q0 53 39.5 86t98.5 33q62 0 103.5 -47.5t41.5 -110.5q0 -133 -73 -242t-260 -225z" />
    <glyph glyph-name="hyphen" unicode="-" horiz-adv-x="752" 
d="M144 506l30 175h428l-30 -175h-428z" />
    <glyph glyph-name="hyphen" unicode="&#x2010;" horiz-adv-x="752" 
d="M144 506l30 175h428l-30 -175h-428z" />
    <glyph glyph-name="period" unicode="." horiz-adv-x="752" 
d="M315 281q62 0 106 -44t44 -106t-44 -106.5t-106 -44.5t-106 44.5t-44 106.5t44 106t106 44z" />
    <glyph glyph-name="slash" unicode="/" 
d="M350 0h-161l531 1471h159z" />
    <glyph glyph-name="zero" unicode="0" 
d="M68 416q0 481 171.5 778t483.5 297q368 0 368 -420q0 -511 -167 -801t-481 -290q-180 0 -277.5 115t-97.5 321zM268 453q0 -303 191 -303q206 0 318.5 260.5t112.5 641.5q0 269 -201 269q-190 0 -305.5 -276.5t-115.5 -591.5z" />
    <glyph glyph-name="one" unicode="1" 
d="M444 0l195 1101l-296 -151l28 192q348 161 472 329h60l-259 -1471h-200z" />
    <glyph glyph-name="two" unicode="2" 
d="M63 0v90l483 618q143 184 192 273t49 173q0 77 -64 120.5t-159 43.5q-138 0 -228 -133l-140 92q95 214 392 214q194 0 301.5 -87.5t107.5 -237.5q0 -99 -55.5 -208t-214.5 -314l-358 -464h544l-32 -180h-818z" />
    <glyph glyph-name="three" unicode="3" 
d="M47 107l91 166q38 -51 111 -87t144 -36q148 0 239.5 90t91.5 238q0 223 -268 223l28 162q309 0 309 269q0 90 -54 139.5t-150 49.5q-115 0 -197 -69l-90 118q114 121 332 121q165 0 270 -89t105 -243q0 -124 -83 -228.5t-209 -146.5q216 -74 216 -299q0 -257 -138.5 -381
t-434.5 -124q-200 0 -313 127z" />
    <glyph glyph-name="four" unicode="4" 
d="M882 399l-70 -399h-200l70 399h-657l20 114l956 958h70l-162 -918h148l-27 -154h-148zM799 1065l-510 -512h420z" />
    <glyph glyph-name="five" unicode="5" 
d="M311 756h-103l125 715h729l-30 -170h-539l-63 -356q81 55 197 55q153 0 251 -98t98 -250q0 -672 -600 -672q-192 0 -296 104l82 177q117 -111 243 -111q170 0 262.5 118.5t92.5 315.5q0 109 -65 177.5t-167 68.5q-136 0 -217 -74z" />
    <glyph glyph-name="six" unicode="6" 
d="M878 1491l79 -107q-105 -41 -302 -241.5t-234 -305.5q97 80 245 80q166 0 261.5 -93t95.5 -258q0 -238 -149 -414.5t-369 -176.5q-391 0 -391 417q0 224 84.5 420.5t279.5 411.5t400 267zM309 363q0 -218 211 -218q129 0 211 113.5t82 266.5q0 101 -50.5 161.5
t-139.5 60.5q-148 0 -231 -106t-83 -278z" />
    <glyph glyph-name="seven" unicode="7" 
d="M342 0h-242q183 377 785 1281h-701l33 190h957v-78q-518 -729 -832 -1393z" />
    <glyph glyph-name="eight" unicode="8" 
d="M430 815q-70 41 -114.5 124t-44.5 168q0 173 122 278.5t321 105.5q151 0 256.5 -83t105.5 -215q0 -127 -80.5 -242.5t-196.5 -155.5q92 -52 147 -142t55 -194q0 -246 -123.5 -362.5t-394.5 -116.5q-174 0 -286.5 97t-112.5 252q0 168 90 293.5t256 192.5zM655 894
q80 21 147 103t67 165q0 68 -55.5 113.5t-129.5 45.5q-97 0 -153.5 -62.5t-56.5 -149.5q0 -65 52.5 -124.5t128.5 -90.5zM594 725q-109 -25 -207 -133.5t-98 -227.5q0 -95 63 -154.5t151 -59.5q296 0 296 292q0 85 -57.5 161t-147.5 122z" />
    <glyph glyph-name="nine" unicode="9" 
d="M320 -25l-78 107q105 41 302 241t233 305q-95 -79 -245 -79q-151 0 -253.5 105t-102.5 266q0 257 139.5 414t378.5 157q181 0 286 -114.5t105 -302.5q0 -387 -265 -716t-500 -383zM889 1103q0 97 -55 157.5t-155 60.5q-137 0 -215 -106t-78 -274q0 -101 50.5 -161.5
t138.5 -60.5q148 0 231 105.5t83 278.5z" />
    <glyph glyph-name="colon" unicode=":" horiz-adv-x="752" 
d="M442 1071q62 0 106 -44t44 -106t-44 -106.5t-106 -44.5t-106 44.5t-44 106.5t44 106t106 44zM354 281q62 0 106 -44t44 -106t-44 -106.5t-106 -44.5t-106 44.5t-44 106.5t44 106t106 44z" />
    <glyph glyph-name="semicolon" unicode=";" horiz-adv-x="752" 
d="M442 1071q62 0 106 -44t44 -106t-44 -106.5t-106 -44.5t-106 44.5t-44 106.5t44 106t106 44zM182 -335l-44 76q193 132 193 239q0 35 -23 75q-76 45 -76 116q0 53 39.5 86t98.5 33q62 0 103.5 -47.5t41.5 -110.5q0 -133 -73 -242t-260 -225z" />
    <glyph glyph-name="less" unicode="&#x3c;" 
d="M889 218l-739 358v123l739 354v-161l-571 -255l571 -258v-161z" />
    <glyph glyph-name="equal" unicode="=" 
d="M960 876v-141h-838v141h838zM960 536v-141h-838v141h838z" />
    <glyph glyph-name="greater" unicode="&#x3e;" 
d="M993 576l-739 -358v161l571 258l-571 255v161l739 -354v-123z" />
    <glyph glyph-name="question" unicode="?" horiz-adv-x="752" 
d="M343 429h-98q-1 12 -7.5 46t-6.5 53q0 132 108 255l193 187q54 52 85 111.5t31 118.5q0 138 -166 138q-120 0 -195 -60l-63 130q92 83 315 83q137 0 218.5 -75t81.5 -208q0 -177 -131 -316l-233 -203q-66 -58 -100.5 -123.5t-31.5 -136.5zM288 263q58 0 100 -42t42 -100
t-42 -99.5t-100 -41.5q-59 0 -100.5 41.5t-41.5 99.5t41.5 100t100.5 42z" />
    <glyph glyph-name="at" unicode="@" horiz-adv-x="1578" 
d="M929 355q-26 -44 -94.5 -78t-130.5 -34q-108 0 -173.5 59.5t-65.5 167.5q0 184 129.5 327t308.5 143q62 0 99.5 -9.5t144.5 -55.5q-82 -362 -82 -413q0 -102 82 -102q118 0 184 122t66 288q0 196 -124 314.5t-322 118.5q-289 0 -487 -226t-198 -530q0 -216 127 -337.5
t344 -121.5q231 0 393 128l96 -72q-209 -178 -511 -178q-272 0 -432.5 149t-160.5 410q0 367 247 633.5t604 266.5q260 0 414.5 -138.5t154.5 -382.5q0 -217 -114 -383.5t-297 -166.5q-62 0 -122 27.5t-80 73.5zM995 800q-41 45 -99 45q-113 0 -192 -118t-79 -246
q0 -126 112 -126q72 0 130 51t73 124z" />
    <glyph glyph-name="A" unicode="A" horiz-adv-x="1251" 
d="M936 0l-46 309h-525l-173 -309h-224l857 1485h53l290 -1485h-232zM779 1082l-335 -626h425z" />
    <glyph glyph-name="B" unicode="B" horiz-adv-x="1159" 
d="M87 0l259 1465q149 22 275 22q517 0 517 -345q0 -114 -81.5 -210.5t-192.5 -110.5q244 -45 244 -336q0 -248 -173.5 -372.5t-552.5 -124.5q-106 0 -295 12zM524 1305l-66 -406q87 -7 141 -7q335 0 335 257q0 165 -260 165q-49 0 -150 -9zM424 732l-100 -562
q55 -10 121 -10q199 0 327.5 79.5t128.5 223.5q0 276 -351 276q-58 0 -126 -7z" />
    <glyph glyph-name="C" unicode="C" horiz-adv-x="1225" 
d="M1204 1443l-55 -195q-84 64 -237 64q-236 0 -397.5 -235.5t-161.5 -508.5q0 -413 343 -413q177 0 344 145l-16 -212q-123 -113 -381 -113q-240 0 -371 148t-131 408q0 402 218.5 680.5t564.5 278.5q174 0 280 -47z" />
    <glyph glyph-name="D" unicode="D" horiz-adv-x="1256" 
d="M387 0h-320l258 1465q123 23 249 23q319 0 496 -149t177 -441q0 -426 -244 -662t-616 -236zM492 1293l-186 -1104q58 -8 113 -8q277 0 445 205t168 523q0 182 -120.5 291t-297.5 109q-64 0 -122 -16z" />
    <glyph glyph-name="E" unicode="E" horiz-adv-x="1097" 
d="M484 1285l-72 -407h484l-30 -170h-484l-93 -528h664l-32 -180h-874l259 1465h885l-33 -180h-674z" />
    <glyph glyph-name="F" unicode="F" horiz-adv-x="1075" 
d="M492 1285l-72 -407h515l-30 -170h-515l-125 -708h-210l262 1465h911l-31 -180h-705z" />
    <glyph glyph-name="G" unicode="G" horiz-adv-x="1385" 
d="M1276 1406l-60 -191q-128 95 -278 95q-269 0 -441 -208t-172 -524q0 -423 399 -423q160 0 276 96l61 343h-203l30 170h403l-113 -638q-207 -151 -527 -151q-539 0 -539 564q0 421 239 686t625 265q216 0 300 -84z" />
    <glyph glyph-name="H" unicode="H" horiz-adv-x="1340" 
d="M913 0l125 708h-640l-125 -708h-206l259 1465h206l-104 -587h640l104 587h204l-259 -1465h-204z" />
    <glyph glyph-name="I" unicode="I" horiz-adv-x="570" 
d="M75 0l259 1465h204l-259 -1465h-204z" />
    <glyph glyph-name="J" unicode="J" horiz-adv-x="976" 
d="M-13 293h175q0 -133 135 -133q129 0 196 54.5t114 324.5l163 926h200l-161 -918q-55 -316 -166 -441.5t-376 -125.5q-130 0 -206.5 70.5t-76.5 194.5q0 23 3 48z" />
    <glyph glyph-name="K" unicode="K" horiz-adv-x="1179" 
d="M869 0l-284 674l-244 -277l-70 -397h-202l258 1465h202l-132 -758l666 758h233l-550 -635l354 -830h-231z" />
    <glyph glyph-name="L" unicode="L" horiz-adv-x="1037" 
d="M84 0l259 1465h204l-227 -1285h662l-32 -180h-866z" />
    <glyph glyph-name="M" unicode="M" horiz-adv-x="1559" 
d="M1247 0l-20 906l-487 -926h-50l-158 934l-338 -914h-190l522 1465h101l159 -1028l516 1028h105l41 -1465h-201z" />
    <glyph glyph-name="N" unicode="N" horiz-adv-x="1307" 
d="M1003 -20l-572 1040l-172 -1020h-200l259 1465h80l560 -998l169 998h198l-262 -1485h-60z" />
    <glyph glyph-name="O" unicode="O" horiz-adv-x="1380" 
d="M114 538q0 386 206 669.5t535 283.5q253 0 385.5 -138t132.5 -397q0 -427 -208.5 -704t-577.5 -277q-221 0 -347 156.5t-126 406.5zM327 566q0 -190 75.5 -300.5t216.5 -110.5q249 0 395.5 231t146.5 549q0 377 -324 377q-224 0 -367 -244.5t-143 -501.5z" />
    <glyph glyph-name="P" unicode="P" horiz-adv-x="1113" 
d="M362 564l-100 -564h-208l267 1465q186 20 294 20q552 0 552 -426q0 -245 -170 -382t-435 -137q-105 0 -200 24zM489 1285l-95 -541q55 -27 162 -27q178 0 288 83.5t110 238.5q0 269 -290 269q-82 0 -175 -23z" />
    <glyph glyph-name="Q" unicode="Q" horiz-adv-x="1380" 
d="M918 44q32 -104 130.5 -160.5t233.5 -56.5q125 0 230 75l87 -151q-34 -45 -137.5 -84t-215.5 -39q-201 0 -338.5 99.5t-173.5 270.5q-77 -23 -161 -23q-229 0 -351 149.5t-122 413.5q0 386 205.5 669.5t534.5 283.5q252 0 385.5 -138t133.5 -397q0 -301 -121 -567.5
t-320 -344.5zM313 566q0 -190 75.5 -300.5t216.5 -110.5q249 0 395.5 232.5t146.5 547.5q0 377 -324 377q-218 0 -364 -239.5t-146 -506.5z" />
    <glyph glyph-name="R" unicode="R" horiz-adv-x="1192" 
d="M834 0l-230 629q-77 0 -211 10l-112 -639h-210l258 1465q41 1 161.5 8t197.5 7q232 0 357.5 -83t125.5 -238q0 -183 -108.5 -320.5t-272.5 -174.5l273 -664h-229zM507 1285l-84 -476q74 -10 139 -10q178 0 286.5 74t108.5 203q0 119 -76 169t-254 50q-38 0 -120 -10z" />
    <glyph glyph-name="S" unicode="S" horiz-adv-x="985" 
d="M87 47l60 192q43 -34 128.5 -58t164.5 -24q119 0 191 58t72 160q0 85 -54.5 150t-186 160t-191.5 177t-60 205q0 198 125.5 310.5t324.5 112.5q225 0 299 -39l-57 -194q-28 23 -94 43t-123 20q-128 0 -202 -58t-74 -167q0 -46 23.5 -89t63.5 -77.5t164.5 -127.5
t183 -189.5t58.5 -224.5q0 -199 -133.5 -305.5t-352.5 -106.5q-78 0 -176 22t-154 50z" />
    <glyph glyph-name="T" unicode="T" horiz-adv-x="1189" 
d="M828 1285l-226 -1285h-205l226 1285h-466l32 180h1153l-32 -180h-482z" />
    <glyph glyph-name="U" unicode="U" horiz-adv-x="1328" 
d="M324 1465h210l-180 -1003q-6 -33 -6 -63q0 -113 68.5 -178.5t186.5 -65.5q146 0 242 83t122 229l179 998h206l-180 -1019q-39 -222 -199.5 -346.5t-399.5 -124.5q-203 0 -321 99t-118 261q0 53 10 112z" />
    <glyph glyph-name="V" unicode="V" horiz-adv-x="1203" 
d="M563 -20h-101l-284 1485h220l186 -1069l544 1069h227z" />
    <glyph glyph-name="W" unicode="W" horiz-adv-x="1745" 
d="M1187 -20h-63l-169 989l-506 -989h-63l-200 1485h208l119 -990l497 990h70l147 -985l460 985h218z" />
    <glyph glyph-name="X" unicode="X" horiz-adv-x="1140" 
d="M818 0l-244 565l-416 -565h-232l565 770l-271 696l207 -1l200 -536l418 536h231l-568 -720l334 -745h-224z" />
    <glyph glyph-name="Y" unicode="Y" horiz-adv-x="1168" 
d="M714 656l-116 -656h-200l116 656l-332 809h209l249 -625l461 625h226z" />
    <glyph glyph-name="Z" unicode="Z" horiz-adv-x="1127" 
d="M80 0v50l817 1235h-620l31 180h876v-50l-789 -1235h614l-32 -180h-897z" />
    <glyph glyph-name="bracketleft" unicode="[" horiz-adv-x="752" 
d="M22 -420l340 1930h473l-30 -170h-263l-280 -1590h263l-30 -170h-473z" />
    <glyph glyph-name="backslash" unicode="\" horiz-adv-x="728" 
d="M490 0l-305 1471h142l306 -1471h-143z" />
    <glyph glyph-name="bracketright" unicode="]" horiz-adv-x="752" 
d="M466 -420h-473l30 170h263l280 1590h-263l30 170h473z" />
    <glyph glyph-name="asciicircum" unicode="^" 
d="M906 907l-244 448l-248 -452h-122l318 568h107l316 -564h-127z" />
    <glyph glyph-name="underscore" unicode="_" 
d="M-8 -254v129h1085v-129h-1085z" />
    <glyph glyph-name="grave" unicode="`" 
d="M661 1225l-156 333h197l59 -333h-100z" />
    <glyph glyph-name="a" unicode="a" horiz-adv-x="1076" 
d="M1052 1004l-131 -623q-8 -38 -8 -92q0 -156 49 -289h-194q-16 32 -34 108q-47 -57 -140 -92.5t-197 -35.5q-158 0 -246.5 93.5t-88.5 268.5q0 294 173.5 521.5t446.5 227.5q258 0 370 -87zM842 893q-27 43 -182 43q-158 0 -278 -168t-120 -420q0 -213 190 -213
q99 0 186 102.5t121 262.5z" />
    <glyph glyph-name="b" unicode="b" horiz-adv-x="1141" 
d="M253 103l-101 -123h-125q65 187 110 435l192 1095h184l-89 -552q75 133 267 133q172 0 284.5 -127.5t112.5 -342.5q0 -253 -175 -447t-433 -194q-163 0 -227 123zM397 784l-100 -521q-2 -11 22 -45t67.5 -58t87.5 -24q170 0 289 150t119 319q0 326 -288 326
q-114 0 -197 -147z" />
    <glyph glyph-name="c" unicode="c" horiz-adv-x="942" 
d="M928 1037l-35 -163q-72 57 -193 57q-184 0 -297.5 -145.5t-113.5 -357.5q0 -130 73.5 -207.5t167.5 -77.5q145 0 278 89l-21 -194q-131 -58 -287 -58q-198 0 -304 113.5t-106 301.5q0 306 168 501t428 195q154 0 242 -54z" />
    <glyph glyph-name="d" unicode="d" horiz-adv-x="1141" 
d="M746 0l23 123q-116 -142 -317 -142q-174 0 -272 106.5t-98 289.5q0 313 168 512.5t430 199.5q152 0 233 -126l101 547h181l-261 -1510h-188zM878 774q2 9 -26.5 55.5t-69 73t-85.5 26.5q-177 0 -293.5 -143.5t-116.5 -367.5q0 -283 233 -283q105 0 196 103.5t118 267.5z
" />
    <glyph glyph-name="e" unicode="e" horiz-adv-x="1100" 
d="M311 506q-9 -48 -9 -92q0 -132 74 -203t207 -71q118 0 238 87l-20 -194q-160 -53 -283 -53q-414 0 -414 464q0 273 174 460t438 187q159 0 254 -68t95 -194q0 -175 -148 -276t-363 -101q-144 0 -243 54zM344 644q76 -34 179 -34q156 0 255 50.5t99 147.5q0 123 -170 123
q-259 0 -363 -287z" />
    <glyph glyph-name="f" unicode="f" horiz-adv-x="822" 
d="M899 1332q-76 28 -118 28q-181 0 -231 -289h248l-16 -131h-251l-169 -1010q-24 -142 -130 -230.5t-257 -107.5l-17 117q60 12 123 81t76 140l177 1010h-151l22 131h147q88 439 441 439q84 0 142 -30z" />
    <glyph glyph-name="g" unicode="g" horiz-adv-x="1028" 
d="M-13 -300l90 140q183 -92 303 -92q132 0 220 49t88 137q0 44 -29.5 72.5t-100.5 40.5l-176 30q-107 27 -107 109q0 66 171 133l-34 -1q-117 0 -205.5 87.5t-88.5 210.5q0 210 135 342.5t345 132.5q151 0 238 -72l90 102l105 -108l-99 -103q29 -41 29 -129
q0 -172 -87 -295t-227.5 -172.5t-140.5 -92.5q0 -35 38 -35q14 0 41.5 4.5t41.5 4.5q250 0 250 -226q0 -177 -157.5 -283t-374.5 -106q-220 0 -358 120zM584 938q-115 0 -193.5 -89.5t-78.5 -210.5q0 -218 165 -218q112 0 198 109.5t86 232.5q0 81 -48 128.5t-129 47.5z" />
    <glyph glyph-name="h" unicode="h" horiz-adv-x="1141" 
d="M736 0l119 673q7 40 7 73q0 185 -180 185q-69 0 -145.5 -40.5t-123.5 -94.5l-141 -796h-194l261 1510h189l-88 -557q49 59 140.5 98.5t181.5 39.5q142 0 220.5 -81t78.5 -228q0 -51 -10 -109l-119 -673h-196z" />
    <glyph glyph-name="i" unicode="i" horiz-adv-x="628" 
d="M445 1491q55 0 94 -38.5t39 -94.5q0 -55 -39 -93.5t-94 -38.5t-94 38.5t-39 93.5q0 56 39 94.5t94 38.5zM138 0l162 911h-142l35 157h327l-189 -1068h-193z" />
    <glyph glyph-name="j" unicode="j" horiz-adv-x="751" 
d="M581 1491q55 0 94 -39t39 -94t-39 -93.5t-94 -38.5t-94 38.5t-39 93.5t39 94t94 39zM-139 -415l8 168q345 0 393 252l172 906h-141l34 160h329l-193 -1055q-42 -228 -186 -329.5t-416 -101.5z" />
    <glyph glyph-name="k" unicode="k" horiz-adv-x="1033" 
d="M441 473l-75 -65l-70 -408h-190l253 1510h185l-137 -878q376 352 463 474l128 -115q-161 -179 -409 -414l404 -577h-224z" />
    <glyph glyph-name="l" unicode="l" horiz-adv-x="656" 
d="M489 120l-22 -140q-321 0 -321 238q0 72 50 321l192 971h198l-183 -912q-57 -284 -57 -356q0 -122 143 -122z" />
    <glyph glyph-name="m" unicode="m" horiz-adv-x="1700" 
d="M1299 0l120 678q7 40 7 77q0 176 -177 176q-65 0 -131.5 -40.5t-100.5 -98.5l-140 -792h-195l135 761q3 17 3 31q0 139 -189 139q-57 0 -127 -44t-106 -97l-140 -790h-194l138 781q6 34 6 94q0 111 -20 180l185 35q18 -77 21 -140q40 65 132.5 103t192.5 38
q229 0 296 -143q44 62 138 102.5t186 40.5q291 0 291 -278q0 -46 -9 -97l-127 -716h-195z" />
    <glyph glyph-name="n" unicode="n" horiz-adv-x="1119" 
d="M728 0l112 623q15 83 15 138q0 170 -177 170q-68 0 -145.5 -40t-123.5 -95l-139 -796h-192l144 812q5 28 5 66q0 102 -21 177l184 36q27 -146 26 -159q122 159 352 159q290 0 290 -296q0 -59 -13 -132l-115 -663h-202z" />
    <glyph glyph-name="o" unicode="o" horiz-adv-x="1099" 
d="M73 394q0 287 168 492t427 205q195 0 298 -105.5t103 -299.5q0 -154 -61.5 -320t-201 -276t-334.5 -110q-193 0 -296 108.5t-103 305.5zM273 406q0 -271 227 -271q169 0 268.5 164t99.5 379q0 258 -227 258q-115 0 -202.5 -82t-126.5 -210t-39 -238z" />
    <glyph glyph-name="p" unicode="p" horiz-adv-x="1141" 
d="M259 54l-84 -479h-190l210 1176q14 77 14 151q0 76 -15 148l191 36q5 -13 18 -137q47 58 135 97.5t164 39.5q200 0 299.5 -99t99.5 -298q0 -304 -168.5 -509t-442.5 -205q-59 0 -135.5 23t-95.5 56zM287 211q18 -32 73 -54t103 -22q209 0 322.5 141.5t113.5 386.5
q0 132 -66.5 197.5t-199.5 65.5q-58 0 -134.5 -40.5t-108.5 -84.5z" />
    <glyph glyph-name="q" unicode="q" horiz-adv-x="1141" 
d="M671 -420l85 483q-97 -83 -293 -83q-166 0 -275 119t-109 282q0 297 174.5 503.5t446.5 206.5q142 0 243 -101l51 81h158q-61 -199 -82 -318l-209 -1173h-190zM895 849q-67 82 -191 82q-187 0 -304 -147.5t-117 -356.5q0 -137 71.5 -212t202.5 -75q136 0 225 70z" />
    <glyph glyph-name="r" unicode="r" horiz-adv-x="853" 
d="M835 883q-60 48 -140 48q-101 0 -193 -93.5t-115 -223.5l-109 -614h-190l189 1071h190l-30 -171q138 191 343 191q35 0 109 -14z" />
    <glyph glyph-name="s" unicode="s" horiz-adv-x="829" 
d="M9 64l99 180q39 -39 112 -71.5t125 -32.5q89 0 147 48t58 130q0 42 -30.5 75t-105.5 76l-141 78q-65 37 -97.5 93.5t-32.5 120.5q0 149 116 239.5t285 90.5q117 0 282 -74l-85 -176q-98 90 -211 90q-75 0 -129.5 -38.5t-54.5 -101.5q0 -46 31 -79t107 -74l140 -76
q65 -35 97 -90t32 -120q0 -172 -124.5 -272t-316.5 -100q-169 0 -303 84z" />
    <glyph glyph-name="t" unicode="t" horiz-adv-x="860" 
d="M321 921h-124l32 150h124l44 224l217 82l-71 -306h294l-32 -150h-294l-112 -532q-13 -62 -13 -96q0 -153 152 -153q74 0 159 37l-7 -167q-82 -30 -265 -30q-114 0 -177.5 70.5t-63.5 193.5q0 28 9 69z" />
    <glyph glyph-name="u" unicode="u" horiz-adv-x="1140" 
d="M431 1071l-125 -683q-8 -44 -8 -81q0 -167 174 -167q107 0 205.5 80t118.5 191l122 660h200l-196 -1071h-200l28 151q-112 -171 -388 -171q-125 0 -195 74t-70 210q0 48 10 104l124 703h200z" />
    <glyph glyph-name="v" unicode="v" horiz-adv-x="1003" 
d="M460 -20h-50l-311 1094h198l192 -737l407 737h219z" />
    <glyph glyph-name="w" unicode="w" horiz-adv-x="1524" 
d="M1042 -20h-50l-199 697l-428 -697h-50l-200 1094h193l117 -681l399 681h50l192 -686l336 686h197z" />
    <glyph glyph-name="x" unicode="x" horiz-adv-x="1026" 
d="M701 0l-188 376l-295 -376h-232l441 557l-270 514h224l177 -372l272 372h250l-427 -530l295 -541h-247z" />
    <glyph glyph-name="y" unicode="y" horiz-adv-x="1010" 
d="M31 -420v191q186 0 264 56t112 168q-141 0 -187 278l-134 798h207l118 -777q17 -115 82 -115l386 892h216l-537 -1199q-68 -152 -181 -222t-346 -70z" />
    <glyph glyph-name="z" unicode="z" horiz-adv-x="972" 
d="M336 170h533l-30 -170h-831v50l657 851h-549l30 170h836v-54z" />
    <glyph glyph-name="braceleft" unicode="{" horiz-adv-x="752" 
d="M399 -420q-148 0 -247.5 66t-99.5 183q0 92 79.5 265t79.5 265q0 152 -176 164l15 84q118 8 186.5 91t68.5 213q0 40 -9 119t-9 119q0 160 128.5 256.5t312.5 96.5h148l-23 -133h-175q-97 0 -149.5 -68t-52.5 -186q0 -33 8 -97.5t8 -97.5q0 -105 -62 -188t-219 -165
q183 -81 183 -223q0 -64 -68 -215.5t-68 -237.5q0 -64 30.5 -103t88.5 -53.5t185 -14.5l-24 -140h-139z" />
    <glyph glyph-name="bar" unicode="|" 
d="M462 -276v1681h146v-1681h-146z" />
    <glyph glyph-name="braceright" unicode="}" horiz-adv-x="752" 
d="M-131 -420l24 140q230 0 308.5 77t78.5 240q0 33 -6 100t-6 101q0 223 276 329q-178 115 -178 246q0 71 65 207.5t65 217.5q0 131 -137 131h-175l23 133h148q141 0 240.5 -64.5t99.5 -177.5q0 -75 -75 -233t-75 -242q0 -164 174 -178l-15 -84q-255 -17 -255 -311
q0 -41 7 -121t7 -120q0 -182 -125.5 -286.5t-329.5 -104.5h-139z" />
    <glyph glyph-name="asciitilde" unicode="~" 
d="M128 556q17 94 88.5 160t158.5 66q113 0 212.5 -66.5t132.5 -66.5q57 0 94.5 17.5t83.5 85.5l49 -17q-25 -100 -92 -169t-151 -69q-95 0 -191 59.5t-151 59.5q-136 0 -194 -80z" />
    <glyph glyph-name="Adieresis" unicode="&#xc4;" horiz-adv-x="1251" 
d="M936 0l-46 309h-525l-173 -309h-224l857 1485h53l290 -1485h-232zM779 1082l-335 -626h425zM620 1813q47 0 79.5 -32.5t32.5 -79.5t-33 -80t-79 -33q-47 0 -80 33t-33 80t33 79.5t80 32.5zM1092 1813q47 0 80 -32.5t33 -79.5t-33 -80t-80 -33t-79.5 33t-32.5 80
t32.5 79.5t79.5 32.5z" />
    <glyph glyph-name="Aring" unicode="&#xc5;" horiz-adv-x="1251" 
d="M936 0l-46 309h-525l-173 -309h-224l857 1485h53l290 -1485h-232zM779 1082l-335 -626h425zM853 1568q-100 0 -161 47t-61 131q0 71 68 124t154 53q92 0 157 -49.5t65 -127.5q0 -81 -61.5 -129.5t-160.5 -48.5zM853 1835q-53 0 -93.5 -25.5t-40.5 -63.5q0 -90 134 -90
q56 0 95.5 24t39.5 66q0 40 -40.5 64.5t-94.5 24.5z" />
    <glyph glyph-name="Ccedilla" unicode="&#xc7;" horiz-adv-x="1225" 
d="M1204 1443l-55 -195q-84 64 -237 64q-236 0 -397.5 -235.5t-161.5 -508.5q0 -413 343 -413q177 0 344 145l-16 -212q-123 -113 -381 -113q-240 0 -371 148t-131 408q0 402 218.5 680.5t564.5 278.5q174 0 280 -47zM513 -455l-8 99q88 0 147 32t59 90t-79 58l21 120
q87 0 133.5 -44t46.5 -117q0 -112 -91.5 -175t-228.5 -63z" />
    <glyph glyph-name="Eacute" unicode="&#xc9;" horiz-adv-x="1097" 
d="M484 1285l-72 -407h484l-30 -170h-484l-93 -528h664l-32 -180h-874l259 1465h885l-33 -180h-674zM975 1918l-226 -333h-140l169 333h197z" />
    <glyph glyph-name="Ntilde" unicode="&#xd1;" horiz-adv-x="1307" 
d="M1003 -20l-572 1040l-172 -1020h-200l259 1465h80l560 -998l169 998h198l-262 -1485h-60zM1122 1792q-90 -207 -229 -207q-60 0 -130 38.5t-101 38.5q-71 0 -122 -77h-91q30 84 91.5 145.5t129.5 61.5q76 0 143 -38.5t99 -38.5q82 0 122 77h88z" />
    <glyph glyph-name="Odieresis" unicode="&#xd6;" horiz-adv-x="1380" 
d="M127 538q0 386 206 669.5t535 283.5q253 0 385.5 -138t132.5 -397q0 -427 -208.5 -704t-577.5 -277q-221 0 -347 156.5t-126 406.5zM340 566q0 -190 75.5 -300.5t216.5 -110.5q249 0 395.5 231t146.5 549q0 377 -324 377q-224 0 -367 -244.5t-143 -501.5zM651 1813
q47 0 79.5 -32.5t32.5 -79.5t-33 -80t-79 -33q-47 0 -80 33t-33 80t33 79.5t80 32.5zM1123 1813q47 0 80 -32.5t33 -79.5t-33 -80t-80 -33t-79.5 33t-32.5 80t32.5 79.5t79.5 32.5z" />
    <glyph glyph-name="Udieresis" unicode="&#xdc;" horiz-adv-x="1328" 
d="M324 1465h210l-180 -1003q-6 -33 -6 -63q0 -113 68.5 -178.5t186.5 -65.5q146 0 242 83t122 229l179 998h206l-180 -1019q-39 -222 -199.5 -346.5t-399.5 -124.5q-203 0 -321 99t-118 261q0 53 10 112zM590 1813q47 0 79.5 -32.5t32.5 -79.5t-33 -80t-79 -33
q-47 0 -80 33t-33 80t33 79.5t80 32.5zM1062 1813q47 0 80 -32.5t33 -79.5t-33 -80t-80 -33t-79.5 33t-32.5 80t32.5 79.5t79.5 32.5z" />
    <glyph glyph-name="aacute" unicode="&#xe1;" horiz-adv-x="1076" 
d="M1052 1004l-131 -623q-8 -38 -8 -92q0 -156 49 -289h-194q-16 32 -34 108q-47 -57 -140 -92.5t-197 -35.5q-158 0 -246.5 93.5t-88.5 268.5q0 294 173.5 521.5t446.5 227.5q258 0 370 -87zM842 893q-27 43 -182 43q-158 0 -278 -168t-120 -420q0 -213 190 -213
q99 0 186 102.5t121 262.5zM1008 1558l-226 -333h-140l169 333h197z" />
    <glyph glyph-name="agrave" unicode="&#xe0;" horiz-adv-x="1076" 
d="M1052 1004l-131 -623q-8 -38 -8 -92q0 -156 49 -289h-194q-16 32 -34 108q-47 -57 -140 -92.5t-197 -35.5q-158 0 -246.5 93.5t-88.5 268.5q0 294 173.5 521.5t446.5 227.5q258 0 370 -87zM842 893q-27 43 -182 43q-158 0 -278 -168t-120 -420q0 -213 190 -213
q99 0 186 102.5t121 262.5zM657 1225l-156 333h197l59 -333h-100z" />
    <glyph glyph-name="acircumflex" unicode="&#xe2;" horiz-adv-x="1076" 
d="M1052 1004l-131 -623q-8 -38 -8 -92q0 -156 49 -289h-194q-16 32 -34 108q-47 -57 -140 -92.5t-197 -35.5q-158 0 -246.5 93.5t-88.5 268.5q0 294 173.5 521.5t446.5 227.5q258 0 370 -87zM842 893q-27 43 -182 43q-158 0 -278 -168t-120 -420q0 -213 190 -213
q99 0 186 102.5t121 262.5zM868 1222l-130 192l-211 -192h-172l361 341h107l242 -341h-197z" />
    <glyph glyph-name="adieresis" unicode="&#xe4;" horiz-adv-x="1076" 
d="M1052 1004l-131 -623q-8 -38 -8 -92q0 -156 49 -289h-194q-16 32 -34 108q-47 -57 -140 -92.5t-197 -35.5q-158 0 -246.5 93.5t-88.5 268.5q0 294 173.5 521.5t446.5 227.5q258 0 370 -87zM842 893q-27 43 -182 43q-158 0 -278 -168t-120 -420q0 -213 190 -213
q99 0 186 102.5t121 262.5zM495 1453q47 0 79.5 -32.5t32.5 -79.5t-33 -80t-79 -33q-47 0 -80 33t-33 80t33 79.5t80 32.5zM967 1453q47 0 80 -32.5t33 -79.5t-33 -80t-80 -33t-79.5 33t-32.5 80t32.5 79.5t79.5 32.5z" />
    <glyph glyph-name="atilde" unicode="&#xe3;" horiz-adv-x="1076" 
d="M1052 1004l-131 -623q-8 -38 -8 -92q0 -156 49 -289h-194q-16 32 -34 108q-47 -57 -140 -92.5t-197 -35.5q-158 0 -246.5 93.5t-88.5 268.5q0 294 173.5 521.5t446.5 227.5q258 0 370 -87zM842 893q-27 43 -182 43q-158 0 -278 -168t-120 -420q0 -213 190 -213
q99 0 186 102.5t121 262.5zM1085 1432q-90 -207 -229 -207q-60 0 -130 38.5t-101 38.5q-71 0 -122 -77h-91q30 84 91.5 145.5t129.5 61.5q76 0 143 -38.5t99 -38.5q82 0 122 77h88z" />
    <glyph glyph-name="aring" unicode="&#xe5;" horiz-adv-x="1076" 
d="M1052 1004l-131 -623q-8 -38 -8 -92q0 -156 49 -289h-194q-16 32 -34 108q-47 -57 -140 -92.5t-197 -35.5q-158 0 -246.5 93.5t-88.5 268.5q0 294 173.5 521.5t446.5 227.5q258 0 370 -87zM842 893q-27 43 -182 43q-158 0 -278 -168t-120 -420q0 -213 190 -213
q99 0 186 102.5t121 262.5zM769 1222q-100 0 -161 47t-61 131q0 71 68 124t154 53q92 0 157 -49.5t65 -127.5q0 -81 -61.5 -129.5t-160.5 -48.5zM769 1489q-53 0 -93.5 -25.5t-40.5 -63.5q0 -90 134 -90q56 0 95.5 24t39.5 66q0 40 -40.5 64.5t-94.5 24.5z" />
    <glyph glyph-name="ccedilla" unicode="&#xe7;" horiz-adv-x="942" 
d="M928 1037l-35 -163q-72 57 -193 57q-184 0 -297.5 -145.5t-113.5 -357.5q0 -130 73.5 -207.5t167.5 -77.5q145 0 278 89l-21 -194q-131 -58 -287 -58q-198 0 -304 113.5t-106 301.5q0 306 168 501t428 195q154 0 242 -54zM356 -455l-8 99q88 0 147 32t59 90t-79 58
l21 120q87 0 133.5 -44t46.5 -117q0 -112 -91.5 -175t-228.5 -63z" />
    <glyph glyph-name="eacute" unicode="&#xe9;" horiz-adv-x="1100" 
d="M311 506q-9 -48 -9 -92q0 -132 74 -203t207 -71q118 0 238 87l-20 -194q-160 -53 -283 -53q-414 0 -414 464q0 273 174 460t438 187q159 0 254 -68t95 -194q0 -175 -148 -276t-363 -101q-144 0 -243 54zM344 644q76 -34 179 -34q156 0 255 50.5t99 147.5q0 123 -170 123
q-259 0 -363 -287zM987 1558l-226 -333h-140l169 333h197z" />
    <glyph glyph-name="egrave" unicode="&#xe8;" horiz-adv-x="1100" 
d="M311 506q-9 -48 -9 -92q0 -132 74 -203t207 -71q118 0 238 87l-20 -194q-160 -53 -283 -53q-414 0 -414 464q0 273 174 460t438 187q159 0 254 -68t95 -194q0 -175 -148 -276t-363 -101q-144 0 -243 54zM344 644q76 -34 179 -34q156 0 255 50.5t99 147.5q0 123 -170 123
q-259 0 -363 -287zM701 1225l-156 333h197l59 -333h-100z" />
    <glyph glyph-name="ecircumflex" unicode="&#xea;" horiz-adv-x="1100" 
d="M311 506q-9 -48 -9 -92q0 -132 74 -203t207 -71q118 0 238 87l-20 -194q-160 -53 -283 -53q-414 0 -414 464q0 273 174 460t438 187q159 0 254 -68t95 -194q0 -175 -148 -276t-363 -101q-144 0 -243 54zM344 644q76 -34 179 -34q156 0 255 50.5t99 147.5q0 123 -170 123
q-259 0 -363 -287zM860 1222l-130 192l-211 -192h-172l361 341h107l242 -341h-197z" />
    <glyph glyph-name="edieresis" unicode="&#xeb;" horiz-adv-x="1100" 
d="M311 506q-9 -48 -9 -92q0 -132 74 -203t207 -71q118 0 238 87l-20 -194q-160 -53 -283 -53q-414 0 -414 464q0 273 174 460t438 187q159 0 254 -68t95 -194q0 -175 -148 -276t-363 -101q-144 0 -243 54zM344 644q76 -34 179 -34q156 0 255 50.5t99 147.5q0 123 -170 123
q-259 0 -363 -287zM490 1453q47 0 79.5 -32.5t32.5 -79.5t-33 -80t-79 -33q-47 0 -80 33t-33 80t33 79.5t80 32.5zM962 1453q47 0 80 -32.5t33 -79.5t-33 -80t-80 -33t-79.5 33t-32.5 80t32.5 79.5t79.5 32.5z" />
    <glyph glyph-name="iacute" unicode="&#xed;" horiz-adv-x="628" 
d="M138 0l162 911h-142l35 157h327l-189 -1068h-193zM613 1558l-226 -333h-140l169 333h197z" />
    <glyph glyph-name="igrave" unicode="&#xec;" horiz-adv-x="628" 
d="M138 0l162 911h-142l35 157h327l-189 -1068h-193zM360 1225l-156 333h197l59 -333h-100z" />
    <glyph glyph-name="icircumflex" unicode="&#xee;" horiz-adv-x="628" 
d="M238 0l162 911h-142l35 157h327l-189 -1068h-193zM651 1222l-130 192l-211 -192h-172l361 341h107l242 -341h-197z" />
    <glyph glyph-name="idieresis" unicode="&#xef;" horiz-adv-x="628" 
d="M138 0l162 911h-142l35 157h327l-189 -1068h-193zM251 1453q47 0 79.5 -32.5t32.5 -79.5t-33 -80t-79 -33q-47 0 -80 33t-33 80t33 79.5t80 32.5zM723 1453q47 0 80 -32.5t33 -79.5t-33 -80t-80 -33t-79.5 33t-32.5 80t32.5 79.5t79.5 32.5z" />
    <glyph glyph-name="ntilde" unicode="&#xf1;" horiz-adv-x="1119" 
d="M728 0l112 623q15 83 15 138q0 170 -177 170q-68 0 -145.5 -40t-123.5 -95l-139 -796h-192l144 812q5 28 5 66q0 102 -21 177l184 36q27 -146 26 -159q122 159 352 159q290 0 290 -296q0 -59 -13 -132l-115 -663h-202zM1042 1432q-90 -207 -229 -207q-60 0 -130 38.5
t-101 38.5q-71 0 -122 -77h-91q30 84 91.5 145.5t129.5 61.5q76 0 143 -38.5t99 -38.5q82 0 122 77h88z" />
    <glyph glyph-name="oacute" unicode="&#xf3;" horiz-adv-x="1099" 
d="M73 394q0 287 168 492t427 205q195 0 298 -105.5t103 -299.5q0 -154 -61.5 -320t-201 -276t-334.5 -110q-193 0 -296 108.5t-103 305.5zM273 406q0 -271 227 -271q169 0 268.5 164t99.5 379q0 258 -227 258q-115 0 -202.5 -82t-126.5 -210t-39 -238zM917 1558l-226 -333
h-140l169 333h197z" />
    <glyph glyph-name="ograve" unicode="&#xf2;" horiz-adv-x="1099" 
d="M73 394q0 287 168 492t427 205q195 0 298 -105.5t103 -299.5q0 -154 -61.5 -320t-201 -276t-334.5 -110q-193 0 -296 108.5t-103 305.5zM273 406q0 -271 227 -271q169 0 268.5 164t99.5 379q0 258 -227 258q-115 0 -202.5 -82t-126.5 -210t-39 -238zM661 1225l-156 333
h197l59 -333h-100z" />
    <glyph glyph-name="ocircumflex" unicode="&#xf4;" horiz-adv-x="1099" 
d="M73 394q0 287 168 492t427 205q195 0 298 -105.5t103 -299.5q0 -154 -61.5 -320t-201 -276t-334.5 -110q-193 0 -296 108.5t-103 305.5zM273 406q0 -271 227 -271q169 0 268.5 164t99.5 379q0 258 -227 258q-115 0 -202.5 -82t-126.5 -210t-39 -238zM810 1222l-130 192
l-211 -192h-172l361 341h107l242 -341h-197z" />
    <glyph glyph-name="odieresis" unicode="&#xf6;" horiz-adv-x="1099" 
d="M73 394q0 287 168 492t427 205q195 0 298 -105.5t103 -299.5q0 -154 -61.5 -320t-201 -276t-334.5 -110q-193 0 -296 108.5t-103 305.5zM273 406q0 -271 227 -271q169 0 268.5 164t99.5 379q0 258 -227 258q-115 0 -202.5 -82t-126.5 -210t-39 -238zM470 1453
q47 0 79.5 -32.5t32.5 -79.5t-33 -80t-79 -33q-47 0 -80 33t-33 80t33 79.5t80 32.5zM942 1453q47 0 80 -32.5t33 -79.5t-33 -80t-80 -33t-79.5 33t-32.5 80t32.5 79.5t79.5 32.5z" />
    <glyph glyph-name="otilde" unicode="&#xf5;" horiz-adv-x="1099" 
d="M73 394q0 287 168 492t427 205q195 0 298 -105.5t103 -299.5q0 -154 -61.5 -320t-201 -276t-334.5 -110q-193 0 -296 108.5t-103 305.5zM273 406q0 -271 227 -271q169 0 268.5 164t99.5 379q0 258 -227 258q-115 0 -202.5 -82t-126.5 -210t-39 -238zM1022 1432
q-90 -207 -229 -207q-60 0 -130 38.5t-101 38.5q-71 0 -122 -77h-91q30 84 91.5 145.5t129.5 61.5q76 0 143 -38.5t99 -38.5q82 0 122 77h88z" />
    <glyph glyph-name="uacute" unicode="&#xfa;" horiz-adv-x="1140" 
d="M431 1071l-125 -683q-8 -44 -8 -81q0 -167 174 -167q107 0 205.5 80t118.5 191l122 660h200l-196 -1071h-200l28 151q-112 -171 -388 -171q-125 0 -195 74t-70 210q0 48 10 104l124 703h200zM937 1558l-226 -333h-140l169 333h197z" />
    <glyph glyph-name="ugrave" unicode="&#xf9;" horiz-adv-x="1140" 
d="M431 1071l-125 -683q-8 -44 -8 -81q0 -167 174 -167q107 0 205.5 80t118.5 191l122 660h200l-196 -1071h-200l28 151q-112 -171 -388 -171q-125 0 -195 74t-70 210q0 48 10 104l124 703h200zM681 1225l-156 333h197l59 -333h-100z" />
    <glyph glyph-name="ucircumflex" unicode="&#xfb;" horiz-adv-x="1140" 
d="M431 1071l-125 -683q-8 -44 -8 -81q0 -167 174 -167q107 0 205.5 80t118.5 191l122 660h200l-196 -1071h-200l28 151q-112 -171 -388 -171q-125 0 -195 74t-70 210q0 48 10 104l124 703h200zM860 1222l-130 192l-211 -192h-172l361 341h107l242 -341h-197z" />
    <glyph glyph-name="udieresis" unicode="&#xfc;" horiz-adv-x="1140" 
d="M431 1071l-125 -683q-8 -44 -8 -81q0 -167 174 -167q107 0 205.5 80t118.5 191l122 660h200l-196 -1071h-200l28 151q-112 -171 -388 -171q-125 0 -195 74t-70 210q0 48 10 104l124 703h200zM490 1453q47 0 79.5 -32.5t32.5 -79.5t-33 -80t-79 -33q-47 0 -80 33t-33 80
t33 79.5t80 32.5zM962 1453q47 0 80 -32.5t33 -79.5t-33 -80t-80 -33t-79.5 33t-32.5 80t32.5 79.5t79.5 32.5z" />
    <glyph glyph-name="dagger" unicode="&#x2020;" horiz-adv-x="940" 
d="M481 931h-370l25 140h370l55 314h150l-55 -314h370l-25 -140h-370l-208 -1181l-89 -88l-61 88z" />
    <glyph glyph-name="degree" unicode="&#xb0;" 
d="M653 1072q-88 0 -150 61.5t-62 148.5t62 148t150 61q87 0 149 -61t62 -148t-62 -148.5t-149 -61.5zM653 1421q-58 0 -98.5 -41t-40.5 -98t40.5 -98t98.5 -41q57 0 98 41t41 98t-41 98t-98 41z" />
    <glyph glyph-name="cent" unicode="&#xa2;" 
d="M920 870l-36 -142q-70 63 -159 89l-168 -586q9 -1 19 -1q132 0 252 69l-19 -150q-119 -45 -260 -45q-14 0 -28 1l-74 -257h-115l83 279q-80 13 -159 108.5t-79 189.5q0 241 135.5 388t348.5 147l76 257h102l-77 -269q93 -28 158 -78zM620 819q-114 -8 -188 -114t-74 -255
q0 -61 30.5 -117t66.5 -70z" />
    <glyph glyph-name="sterling" unicode="&#xa3;" horiz-adv-x="1084" 
d="M335 694h-177l26 149h151q-4 348 120.5 492.5t390.5 144.5q74 0 142 -23t95 -55l-95 -152q-88 62 -194 62q-259 0 -259 -405q0 -31 2 -64h211l-26 -149h-185q3 -120 -39 -299t-107 -231q107 -68 279 -68q70 0 148 41t112 94l115 -127q-34 -69 -152.5 -128.5t-226.5 -59.5
q-114 0 -209 33t-177 33q-70 0 -172 -15l-28 151q12 4 84.5 63.5t122.5 202t50 267.5q0 22 -2 43z" />
    <glyph glyph-name="section" unicode="&#xa7;" horiz-adv-x="929" 
d="M298 937q-82 52 -82 180q0 179 123.5 276t328.5 97q66 0 148 -29.5t124 -69.5l-89 -152q-60 71 -210 71q-211 0 -211 -152q0 -25 13.5 -46.5t39 -38.5t100.5 -42l173 -60q114 -61 114 -186q0 -139 -119 -242q90 -67 90 -165q0 -180 -133.5 -290.5t-333.5 -110.5
q-221 0 -332 92l91 176q42 -37 120 -63.5t142 -26.5q105 0 167.5 46.5t62.5 133.5q0 103 -200 149q-111 25 -186 88t-75 146q0 65 39.5 132.5t94.5 86.5zM439 881q-82 -44 -82 -107q0 -56 46 -88.5t229 -73.5q37 53 37 115q0 45 -27 75t-70 41.5t-133 37.5z" />
    <glyph glyph-name="bullet" unicode="&#x2022;" 
d="M542 863q120 0 204.5 -84.5t84.5 -204.5t-84.5 -204.5t-204.5 -84.5t-204.5 84.5t-84.5 204.5t84.5 204.5t204.5 84.5z" />
    <glyph glyph-name="paragraph" unicode="&#xb6;" horiz-adv-x="1226" 
d="M1236 1384v-134h-154l-179 -946q58 0 158 35l25 -134q-115 -44 -211 -44q-64 -298 -158 -418t-234 -120q-220 0 -290 72l55 150q79 -52 195 -52q175 0 247 373q-195 -8 -359.5 130t-164.5 370q0 284 211 472.5t543 223.5l13 103h174l-10 -86q91 5 139 5zM900 1218
q-155 -54 -264.5 -204.5t-109.5 -320.5q0 -281 203 -370z" />
    <glyph glyph-name="germandbls" unicode="&#xdf;" horiz-adv-x="1119" 
d="M259 -111q-22 -123 -127.5 -204.5t-243.5 -95.5l-13 120q175 48 215 286l203 1164q28 115 90 195.5t139.5 118t169.5 37.5q152 0 239 -58.5t87 -168.5q0 -67 -28 -132.5t-92 -133t-64 -82.5q0 -21 79 -67q166 -96 166 -317q0 -235 -130.5 -403t-337.5 -168q-75 0 -136 23
l62 151q45 -9 55 -9q129 0 205.5 102.5t76.5 255.5q0 57 -20 104.5t-48 74l-113 104.5q-63 60 -63 121q0 42 52 84.5t83.5 70.5t50 71t18.5 95q0 112 -146 112q-81 0 -138 -62.5t-92 -261.5z" />
    <glyph glyph-name="registered" unicode="&#xae;" horiz-adv-x="1460" 
d="M105 661q0 279 198 476.5t477 197.5t476.5 -197.5t197.5 -476.5t-197.5 -477t-476.5 -198t-477 198t-198 477zM1344 661q0 234 -165 399t-399 165t-399.5 -165t-165.5 -399t165.5 -399.5t399.5 -165.5t399 165.5t165 399.5zM990 254l-211 357h-120v-357h-119v831h213
q300 0 300 -230q0 -160 -161 -226l227 -375h-129zM659 983v-276q15 -2 78 -2q116 0 156 29.5t40 112.5q0 137 -180 137h-47z" />
    <glyph glyph-name="copyright" unicode="&#xa9;" horiz-adv-x="1460" 
d="M105 661q0 279 198 476.5t477 197.5t476.5 -197.5t197.5 -476.5t-197.5 -477t-476.5 -198t-477 198t-198 477zM1344 661q0 234 -165 399t-399 165t-399.5 -165t-165.5 -399t165.5 -399.5t399.5 -165.5t399 165.5t165 399.5zM1038 335q-100 -99 -254 -99
q-162 0 -256 116.5t-94 310.5q0 187 100 309.5t258 122.5q137 0 212 -44l-38 -97q-54 39 -172 39q-110 0 -175.5 -94t-65.5 -242q0 -142 68 -230t175 -88q117 0 179 82z" />
    <glyph glyph-name="trademark" unicode="&#x2122;" horiz-adv-x="1300" 
d="M499 1381v-643h-100v643h-208v90h527v-90h-219zM1254 739l-83 498l-147 -503h-59l-155 510l-77 -505h-95l112 732h75l169 -567l167 567h75l113 -732h-95z" />
    <glyph glyph-name="acute" unicode="&#xb4;" 
d="M917 1558l-226 -333h-140l169 333h197z" />
    <glyph glyph-name="dieresis" unicode="&#xa8;" 
d="M490 1453q47 0 79.5 -32.5t32.5 -79.5t-33 -80t-79 -33q-47 0 -80 33t-33 80t33 79.5t80 32.5zM962 1453q47 0 80 -32.5t33 -79.5t-33 -80t-80 -33t-79.5 33t-32.5 80t32.5 79.5t79.5 32.5z" />
    <glyph glyph-name="notequal" unicode="&#x2260;" 
d="M836 1051h139l-143 -175h142v-141h-257l-162 -199h419v-141h-534l-165 -202h-138l165 202h-166v141h280l163 199h-443v141h557z" />
    <glyph glyph-name="AE" unicode="&#xc6;" horiz-adv-x="1775" 
d="M782 307h-438l-193 -307h-234l963 1465h981l-33 -180h-666l-69 -407h474l-30 -170h-474l-94 -528h654l-31 -180h-864zM948 1252l-514 -796h374z" />
    <glyph glyph-name="Oslash" unicode="&#xd8;" horiz-adv-x="1380" 
d="M1537 1491l-211 -241q60 -120 60 -294q0 -428 -209 -704.5t-577 -276.5q-180 0 -300 107l-89 -102h-213l203 230q-74 140 -74 328q0 386 206 669.5t535 283.5q233 0 365 -118l104 118h200zM361 390l734 827q-81 95 -245 95q-224 0 -367 -244.5t-143 -501.5q0 -97 21 -176
zM1163 1065l-726 -827q74 -83 195 -83q249 0 395.5 231t146.5 549q0 72 -11 130z" />
    <glyph glyph-name="infinity" unicode="&#x221e;" 
d="M595 596q-114 -144 -238 -144q-116 0 -181.5 57.5t-65.5 161.5q0 94 67 154.5t167 60.5q145 0 250 -129q105 129 255 129q99 0 166 -60.5t67 -154.5q0 -103 -66 -161t-180 -58q-127 0 -241 144zM656 674q85 -119 190 -119q130 0 130 116t-140 116q-76 0 -180 -113z
M537 674q-104 113 -180 113q-140 0 -140 -116t130 -116q105 0 190 119z" />
    <glyph glyph-name="plusminus" unicode="&#xb1;" 
d="M640 706h349v-141h-349v-345h-141v345h-348v141h348v343h141v-343zM989 121v-141h-838v141h838z" />
    <glyph glyph-name="lessequal" unicode="&#x2264;" 
d="M150 594v123l739 354v-161l-571 -255l571 -258v-161zM960 121v-141h-838v141h838z" />
    <glyph glyph-name="greaterequal" unicode="&#x2265;" 
d="M961 594l-739 -358v161l571 258l-571 255v161l739 -354v-123zM151 121h838v-141h-838v141z" />
    <glyph glyph-name="yen" unicode="&#xa5;" horiz-adv-x="1140" 
d="M714 656l-19 -110h251l-24 -131h-251l-73 -415h-200l73 415h-246l24 131h246l19 110l-332 809h209l249 -625l461 625h226z" />
    <glyph glyph-name="mu" unicode="&#x3bc;" horiz-adv-x="1140" 
d="M230 18l-77 -438h-190l262 1491h190l-109 -623q-11 -63 -11 -107q0 -195 192 -195q116 0 186.5 64t75.5 85l136 776h190l-188 -1071h-190l26 148q-49 -78 -135.5 -123t-181.5 -45q-108 0 -176 38z" />
    <glyph glyph-name="partialdiff" unicode="&#x2202;" horiz-adv-x="1125" 
d="M754 1062q0 31 -35 76t-101 100t-108.5 81t-185.5 76l79 156q297 -52 491.5 -290.5t194.5 -538.5q0 -327 -170.5 -535t-464.5 -208q-178 0 -277.5 95.5t-99.5 257.5q0 315 193.5 522.5t483.5 207.5zM833 920q-219 12 -390 -150t-171 -393q0 -97 58.5 -162t143.5 -65
q186 0 301 169.5t115 390.5q0 141 -57 210z" />
    <glyph glyph-name="summation" unicode="&#x2211;" horiz-adv-x="1075" 
d="M500 1285l302 -546l-529 -732h642v-180h-894v180l541 732l-300 566v160h872v-180h-634z" />
    <glyph glyph-name="product" unicode="&#x220f;" horiz-adv-x="1132" 
d="M535 1285l-257 -1455h-200l256 1455h-210l32 180h1180l-32 -180h-180l-256 -1455h-200l256 1455h-389z" />
    <glyph glyph-name="pi" unicode="&#x3c0;" horiz-adv-x="1232" 
d="M1150 162l-21 -161q-70 -22 -132 -22q-234 0 -234 215q0 65 6 104l99 613h-337l-160 -911h-193l160 911h-167l28 160h1048l-28 -160h-158l-101 -604q-8 -48 -8 -78q0 -99 106 -99q44 0 92 32z" />
    <glyph glyph-name="integral" unicode="&#x222b;" 
d="M-176 -312l116 159q60 -97 168 -97q71 0 127 74t72 167l190 1073q36 202 161.5 324t297.5 122q161 0 262 -102l-106 -147q-68 79 -196 79q-152 0 -206 -306l-178 -1011q-37 -209 -147.5 -326t-275.5 -117q-177 0 -285 108z" />
    <glyph glyph-name="ordfeminine" unicode="&#xaa;" horiz-adv-x="927" 
d="M929 1430l-92 -436q-6 -28 -6 -90q0 -103 62 -184h-133q-43 43 -53 83q-74 -90 -236 -90q-116 0 -183.5 67.5t-67.5 186.5q0 202 128.5 363t321.5 161q180 0 259 -61zM784 1342q-19 30 -127 30q-98 0 -187.5 -113t-89.5 -278q0 -149 133 -149q148 0 207 243z" />
    <glyph glyph-name="ordmasculine" unicode="&#xba;" horiz-adv-x="940" 
d="M253 1004q0 222 114.5 355t312.5 133q137 0 213.5 -74.5t76.5 -209.5q0 -226 -109.5 -360t-307.5 -134q-138 0 -219 78t-81 212zM403 1013q0 -80 47 -135t122 -55q116 0 182 113t66 267q0 180 -159 180q-123 0 -190.5 -103.5t-67.5 -266.5z" />
    <glyph glyph-name="Omega" unicode="&#x3a9;" horiz-adv-x="1370" 
d="M1236 1l-510 -1l27 152q229 179 326 361.5t97 415.5q0 382 -334 382q-221 0 -357 -196.5t-136 -459.5q0 -148 53 -294.5t140 -210.5l-26 -150l-500 1l26 149h268q-82 74 -129.5 213.5t-47.5 287.5q0 356 204 598t537 242q513 0 513 -541q0 -257 -108 -468t-306 -332h289z
" />
    <glyph glyph-name="ae" unicode="&#xe6;" horiz-adv-x="1730" 
d="M959 506q-8 -48 -8 -92q0 -132 74 -203t207 -71q118 0 238 87l-21 -194q-160 -53 -282 -53q-165 0 -267 120q-4 -59 -9 -100l-188 -1q2 40 21 154q-43 -77 -133 -125t-194 -48q-158 0 -246.5 93.5t-88.5 268.5q0 294 173.5 521.5t446.5 227.5q209 0 340 -41l-11 -71
q154 112 354 112q159 0 254 -68.5t95 -193.5q0 -175 -148 -276t-364 -101q-143 0 -243 54zM829 904q-88 32 -169 32q-171 0 -284.5 -172t-113.5 -416q0 -213 180 -213q217 -2 317 364zM992 644q77 -34 179 -34q148 0 251 54.5t103 153.5q0 113 -210 113q-101 0 -190 -83.5
t-133 -203.5z" />
    <glyph glyph-name="oslash" unicode="&#xf8;" horiz-adv-x="1099" 
d="M1023 1091h168l-172 -179q50 -93 50 -226q0 -154 -61.5 -320t-201 -276t-334.5 -110q-166 0 -267 82l-79 -82h-182l179 184q-50 95 -50 230q0 287 168 492t427 205q173 0 274 -84zM280 326l530 546q-57 64 -169 64q-115 0 -202.5 -82t-126.5 -209.5t-39 -237.5
q0 -44 7 -81zM863 749l-526 -549q58 -65 163 -65q118 0 204 84t125 214.5t39 242.5q0 40 -5 73z" />
    <glyph glyph-name="questiondown" unicode="&#xbf;" horiz-adv-x="752" 
d="M516 808q-58 0 -100 42t-42 100t42 99.5t100 41.5q59 0 100.5 -41.5t41.5 -99.5t-41.5 -100t-100.5 -42zM581 -337q-93 -83 -316 -83q-137 0 -218 75t-81 208q0 97 38 182.5t124 161.5l210 182q128 120 123 253h98q1 -12 7.5 -46t6.5 -53q0 -74 -32.5 -143.5
t-90.5 -126.5l-186 -179q-107 -113 -107 -223q0 -138 165 -138q120 0 195 60z" />
    <glyph glyph-name="exclamdown" unicode="&#xa1;" horiz-adv-x="752" 
d="M482 808q-59 0 -100.5 41.5t-41.5 100.5t41.5 100t100.5 41t100.5 -41t41.5 -100t-41.5 -100.5t-100.5 -41.5zM477 689q-6 -356 -18 -482.5t-28 -216.5l-73 -410h-226l71 409q33 192 203 700h71z" />
    <glyph glyph-name="logicalnot" unicode="&#xac;" 
d="M960 886v-486h-141v345h-697v141h838z" />
    <glyph glyph-name="radical" unicode="&#x221a;" 
d="M751 1349l-384 -1349h-142l-209 268l98 83l150 -194l374 1314h450v-122h-337z" />
    <glyph glyph-name="florin" unicode="&#x192;" horiz-adv-x="822" 
d="M899 1332q-76 28 -118 28q-181 0 -231 -289h248l-16 -131h-251l-169 -1010q-24 -142 -130 -230.5t-257 -107.5l-17 117q60 12 123 81t76 140l177 1010h-151l22 131h147q88 439 441 439q84 0 142 -30z" />
    <glyph glyph-name="approxequal" unicode="&#x2248;" 
d="M248 656q17 94 88.5 160t158.5 66q113 0 212.5 -66.5t132.5 -66.5q57 0 94.5 17.5t83.5 85.5l49 -17q-25 -100 -92 -169t-151 -69q-95 0 -191 59.5t-151 59.5q-136 0 -194 -80zM118 286q17 94 88.5 160t158.5 66q113 0 212.5 -66.5t132.5 -66.5q57 0 94.5 17.5t83.5 85.5
l49 -17q-25 -100 -92 -169t-151 -69q-95 0 -191 59.5t-151 59.5q-136 0 -194 -80z" />
    <glyph glyph-name="uni0394" unicode="&#x394;" horiz-adv-x="1198" 
d="M25 0l22 124l762 1341h144l244 -1341l-22 -124h-1150zM820 1123l-527 -953h675z" />
    <glyph glyph-name="guillemotleft" unicode="&#xab;" 
d="M123 535l11 64l398 244l-22 -125l-240 -157l188 -138l-22 -125zM535 535l11 64l398 244l-22 -125l-240 -157l188 -138l-22 -125z" />
    <glyph glyph-name="guillemotright" unicode="&#xbb;" 
d="M568 535l-397 -237l22 125l236 138l-184 157l22 125l312 -244zM970 535l-397 -237l22 125l236 138l-184 157l22 125l312 -244z" />
    <glyph glyph-name="ellipsis" unicode="&#x2026;" horiz-adv-x="1504" 
d="M400 131q0 -62 -44 -106.5t-106 -44.5t-106 44.5t-44 106.5t44 106t106 44t106 -44t44 -106zM902 131q0 -62 -44 -106.5t-106 -44.5t-106 44.5t-44 106.5t44 106t106 44t106 -44t44 -106zM1404 131q0 -62 -44 -106.5t-106 -44.5t-106 44.5t-44 106.5t44 106t106 44
t106 -44t44 -106z" />
    <glyph glyph-name="nonbreakingspace" unicode="&#xa0;" horiz-adv-x="617" 
 />
    <glyph glyph-name="Agrave" unicode="&#xc0;" horiz-adv-x="1251" 
d="M936 0l-46 309h-525l-173 -309h-224l857 1485h53l290 -1485h-232zM779 1082l-335 -626h425zM811 1585l-156 333h197l59 -333h-100z" />
    <glyph glyph-name="Atilde" unicode="&#xc3;" horiz-adv-x="1251" 
d="M936 0l-46 309h-525l-173 -309h-224l857 1485h53l290 -1485h-232zM779 1082l-335 -626h425zM1192 1792q-90 -207 -229 -207q-60 0 -130 38.5t-101 38.5q-71 0 -122 -77h-91q30 84 91.5 145.5t129.5 61.5q76 0 143 -38.5t99 -38.5q82 0 122 77h88z" />
    <glyph glyph-name="Otilde" unicode="&#xd5;" horiz-adv-x="1380" 
d="M114 538q0 386 206 669.5t535 283.5q253 0 385.5 -138t132.5 -397q0 -427 -208.5 -704t-577.5 -277q-221 0 -347 156.5t-126 406.5zM327 566q0 -190 75.5 -300.5t216.5 -110.5q249 0 395.5 231t146.5 549q0 377 -324 377q-224 0 -367 -244.5t-143 -501.5zM1272 1792
q-90 -207 -229 -207q-60 0 -130 38.5t-101 38.5q-71 0 -122 -77h-91q30 84 91.5 145.5t129.5 61.5q76 0 143 -38.5t99 -38.5q82 0 122 77h88z" />
    <glyph glyph-name="OE" unicode="&#x152;" horiz-adv-x="2034" 
d="M1384 1285l-71 -407h484l-30 -170h-484l-94 -528h664l-31 -180h-864l24 138q-151 -163 -459 -163q-223 0 -348 155.5t-125 407.5q0 427 212.5 690t528.5 263q270 0 402 -156l23 130h875l-32 -180h-675zM263 566q0 -174 78 -292.5t214 -118.5q248 0 395 214.5t147 565.5
q0 376 -338 376q-207 0 -351.5 -219t-144.5 -526z" />
    <glyph glyph-name="oe" unicode="&#x153;" horiz-adv-x="1825" 
d="M880 177q-163 -197 -425 -197q-191 0 -295 108t-104 306q0 285 167.5 491t427.5 206t354 -184q174 184 436 184q159 0 254 -68.5t95 -193.5q0 -175 -148 -276t-364 -101q-142 0 -242 54q-9 -48 -9 -92q0 -132 74.5 -203t206.5 -71q118 0 238 87l-20 -194
q-159 -53 -283 -53q-267 0 -363 197zM624 936q-167 0 -267.5 -161t-100.5 -369q0 -271 227 -271q168 0 268 163.5t100 379.5q0 258 -227 258zM1069 644q77 -34 179 -34q148 0 251 54.5t103 153.5q0 113 -210 113q-100 0 -189 -81.5t-134 -205.5z" />
    <glyph glyph-name="endash" unicode="&#x2013;" horiz-adv-x="752" 
d="M85 532l22 132h522l-23 -132h-521z" />
    <glyph glyph-name="emdash" unicode="&#x2014;" horiz-adv-x="1504" 
d="M85 532l21 132h1308l-20 -132h-1309z" />
    <glyph glyph-name="quotedblleft" unicode="&#x201c;" 
d="M1083 1421l-80 -64q-59 -47 -65 -115q-4 -41 40.5 -95t40.5 -99q-13 -147 -158 -147q-141 0 -141 146q0 15 1 31q24 265 303 432zM624 1421l-80 -64q-59 -47 -65 -115q-4 -41 40.5 -95t40.5 -99q-13 -147 -158 -147q-141 0 -141 147q0 14 1 30q24 265 303 432z" />
    <glyph glyph-name="quotedblright" unicode="&#x201d;" 
d="M1076 1333q-23 -265 -303 -432l-59 89l81 64q59 47 65 115q3 41 -41 95t-40 99q12 147 157 147q141 0 141 -146q0 -15 -1 -31zM617 1333q-23 -265 -303 -432l-59 89l81 64q59 47 65 115q3 41 -41 95t-40 99q12 147 157 147q141 0 141 -146q0 -15 -1 -31z" />
    <glyph glyph-name="quoteleft" unicode="&#x2018;" horiz-adv-x="752" 
d="M681 1421l-80 -64q-59 -47 -65 -115q-4 -41 40.5 -95t40.5 -99q-13 -147 -158 -147q-141 0 -141 146q0 15 1 31q24 265 303 432z" />
    <glyph glyph-name="quoteright" unicode="&#x2019;" horiz-adv-x="752" 
d="M665 1333q-23 -265 -303 -432l-59 89l81 64q59 47 65 115q3 41 -41 95t-40 99q12 147 157 147q141 0 141 -146q0 -15 -1 -31z" />
    <glyph glyph-name="divide" unicode="&#xf7;" 
d="M732 1000q0 -62 -43.5 -106.5t-106.5 -44.5q-62 0 -106 44.5t-44 106.5t44 106t106 44q63 0 106.5 -44t43.5 -106zM998 705v-141h-838v141h838zM732 250q0 -62 -43.5 -106.5t-106.5 -44.5q-62 0 -106 44.5t-44 106.5t44 106t106 44q63 0 106.5 -44t43.5 -106z" />
    <glyph glyph-name="lozenge" unicode="&#x25ca;" horiz-adv-x="1012" 
d="M549 1422l418 -713l-418 -709h-111l-391 709l391 713h111zM495 1325l-340 -616l340 -615l359 615z" />
    <glyph glyph-name="ydieresis" unicode="&#xff;" horiz-adv-x="1010" 
d="M31 -420v191q186 0 264 56t112 168q-141 0 -187 278l-134 798h207l118 -777q17 -115 82 -115l386 892h216l-537 -1199q-68 -152 -181 -222t-346 -70zM452 1453q47 0 79.5 -32.5t32.5 -79.5t-33 -80t-79 -33q-47 0 -80 33t-33 80t33 79.5t80 32.5zM924 1453q47 0 80 -32.5
t33 -79.5t-33 -80t-80 -33t-79.5 33t-32.5 80t32.5 79.5t79.5 32.5z" />
    <glyph glyph-name="Ydieresis" unicode="&#x178;" horiz-adv-x="1168" 
d="M714 656l-116 -656h-200l116 656l-332 809h209l249 -625l461 625h226zM542 1813q47 0 79.5 -32.5t32.5 -79.5t-33 -80t-79 -33q-47 0 -80 33t-33 80t33 79.5t80 32.5zM1014 1813q47 0 80 -32.5t33 -79.5t-33 -80t-80 -33t-79.5 33t-32.5 80t32.5 79.5t79.5 32.5z" />
    <glyph glyph-name="fraction" unicode="&#x2044;" horiz-adv-x="1083" 
d="M131 -35h-127l973 1526h126z" />
    <glyph glyph-name="fraction" unicode="&#x2215;" horiz-adv-x="1083" 
d="M131 -35h-127l973 1526h126z" />
    <glyph glyph-name="Euro" unicode="&#x20ac;" 
d="M933 937l-41 -150h-431q-14 -60 -21 -120h414l-40 -151h-380q0 -360 282 -360q142 0 287 147v-214q-108 -114 -332 -114q-227 0 -347 162q-106 145 -106 379h-125v151h132q6 63 17 120h-149v150h187q64 232 216 375q168 158 400 158q151 0 291 -70l-95 -174
q-85 65 -207 65q-134 0 -247 -124q-93 -102 -131 -230h426z" />
    <glyph glyph-name="guilsinglleft" unicode="&#x2039;" horiz-adv-x="752" 
d="M165 535l11 64l398 244l-22 -125l-240 -157l188 -138l-22 -125z" />
    <glyph glyph-name="guilsinglright" unicode="&#x203a;" horiz-adv-x="752" 
d="M560 535l-397 -237l22 125l236 138l-184 157l22 125l312 -244z" />
    <glyph glyph-name="fi" unicode="&#xfb01;" horiz-adv-x="1303" 
d="M835 0l163 940h-467l-169 -1010q-24 -142 -130 -230.5t-257 -107.5l-17 117q60 12 123 81t76 140l177 1010h-151l22 131h147q88 439 441 439q84 0 142 -30l-36 -148q-76 28 -118 28q-180 0 -231 -289h662l-184 -1071h-193zM1142 1491q55 0 94 -38.5t39 -94.5
q0 -55 -39 -93.5t-94 -38.5t-94 38.5t-39 93.5q0 56 39 94.5t94 38.5z" />
    <glyph glyph-name="fl" unicode="&#xfb02;" horiz-adv-x="1377" 
d="M1195 120l-22 -140q-320 0 -320 238q0 71 49 321l140 707q-30 50 -97 82t-144 32q-94 0 -160.5 -78t-90.5 -211h248l-16 -131h-251l-169 -1010q-24 -142 -130 -230.5t-257 -107.5l-17 117q60 12 123 81t76 140l177 1010h-151l22 131h147q42 214 161.5 326.5t299.5 112.5
q78 0 155.5 -30.5t111.5 -71.5l15 102h201l-187 -912q-56 -273 -56 -306q0 -98 32.5 -135t109.5 -37z" />
    <glyph glyph-name="daggerdbl" unicode="&#x2021;" horiz-adv-x="940" 
d="M890 381l-24 -140h-370l-87 -491l-93 -94l-57 94l87 491h-370l24 140h370l97 550h-370l25 140h370l55 314h150l-55 -314h370l-25 -140h-370l-97 -550h370z" />
    <glyph glyph-name="periodcentered" unicode="&#x2219;" horiz-adv-x="752" 
d="M355 801q62 0 106 -44t44 -106t-44 -106.5t-106 -44.5t-106 44.5t-44 106.5t44 106t106 44z" />
    <glyph glyph-name="quotesinglbase" unicode="&#x201a;" horiz-adv-x="752" 
d="M482 100q-23 -265 -303 -432l-59 89l81 64q59 47 65 115q3 41 -41 95t-40 99q12 147 157 147q141 0 141 -145q0 -16 -1 -32z" />
    <glyph glyph-name="quotedblbase" unicode="&#x201e;" 
d="M892 100q-23 -265 -303 -432l-59 89l81 64q59 47 65 115q3 41 -41 95t-40 99q13 147 158 147q141 0 141 -147q0 -14 -2 -30zM432 100q-23 -265 -303 -432l-59 89l81 64q59 47 65 115q3 41 -41 95t-40 99q13 147 158 147q141 0 141 -147q0 -14 -2 -30z" />
    <glyph glyph-name="perthousand" unicode="&#x2030;" horiz-adv-x="1869" 
d="M153 -20h-127l1150 1511h126zM420 804q-226 0 -226 243q0 174 89 301q100 143 267 143q108 0 165 -69q53 -64 53 -176q0 -169 -87 -297q-99 -145 -261 -145zM529 1389q-102 0 -161 -117q-47 -95 -47 -208q0 -158 108 -158q114 0 171 118q43 91 43 222q0 143 -114 143z
M814 -20q-226 0 -226 243q0 174 89 301q100 143 268 143q108 0 165 -69q53 -64 53 -176q0 -169 -87 -297q-99 -145 -262 -145zM924 565q-103 0 -161 -117q-48 -95 -48 -208q0 -158 108 -158q115 0 172 118q43 91 43 222q0 143 -114 143zM1464 -20q-226 0 -226 243
q0 174 89 301q100 143 268 143q108 0 165 -69q53 -64 53 -176q0 -169 -87 -297q-99 -145 -262 -145zM1574 565q-103 0 -161 -117q-48 -95 -48 -208q0 -158 108 -158q115 0 172 118q43 91 43 222q0 143 -114 143z" />
    <glyph glyph-name="Acircumflex" unicode="&#xc2;" horiz-adv-x="1251" 
d="M936 0l-46 309h-525l-173 -309h-224l857 1485h53l290 -1485h-232zM779 1082l-335 -626h425zM1000 1582l-130 192l-211 -192h-172l361 341h107l242 -341h-197z" />
    <glyph glyph-name="Ecircumflex" unicode="&#xca;" horiz-adv-x="1097" 
d="M484 1285l-72 -407h484l-30 -170h-484l-93 -528h664l-32 -180h-874l259 1465h885l-33 -180h-674zM916 1582l-130 192l-211 -192h-172l361 341h107l242 -341h-197z" />
    <glyph glyph-name="Aacute" unicode="&#xc1;" horiz-adv-x="1251" 
d="M936 0l-46 309h-525l-173 -309h-224l857 1485h53l290 -1485h-232zM779 1082l-335 -626h425zM1057 1918l-226 -333h-140l169 333h197z" />
    <glyph glyph-name="Edieresis" unicode="&#xcb;" horiz-adv-x="1097" 
d="M484 1285l-72 -407h484l-30 -170h-484l-93 -528h664l-32 -180h-874l259 1465h885l-33 -180h-674zM561 1813q47 0 79.5 -32.5t32.5 -79.5t-33 -80t-79 -33q-47 0 -80 33t-33 80t33 79.5t80 32.5zM1033 1813q47 0 80 -32.5t33 -79.5t-33 -80t-80 -33t-79.5 33t-32.5 80
t32.5 79.5t79.5 32.5z" />
    <glyph glyph-name="Egrave" unicode="&#xc8;" horiz-adv-x="1097" 
d="M484 1285l-72 -407h484l-30 -170h-484l-93 -528h664l-32 -180h-874l259 1465h885l-33 -180h-674zM774 1585l-156 333h197l59 -333h-100z" />
    <glyph glyph-name="Iacute" unicode="&#xcd;" horiz-adv-x="570" 
d="M75 0l259 1465h204l-259 -1465h-204zM750 1918l-226 -333h-140l169 333h197z" />
    <glyph glyph-name="Icircumflex" unicode="&#xce;" horiz-adv-x="570" 
d="M75 0l259 1465h204l-259 -1465h-204zM616 1582l-130 192l-211 -192h-172l361 341h107l242 -341h-197z" />
    <glyph glyph-name="Idieresis" unicode="&#xcf;" horiz-adv-x="570" 
d="M75 0l259 1465h204l-259 -1465h-204zM226 1813q47 0 79.5 -32.5t32.5 -79.5t-33 -80t-79 -33q-47 0 -80 33t-33 80t33 79.5t80 32.5zM698 1813q47 0 80 -32.5t33 -79.5t-33 -80t-80 -33t-79.5 33t-32.5 80t32.5 79.5t79.5 32.5z" />
    <glyph glyph-name="Igrave" unicode="&#xcc;" horiz-adv-x="570" 
d="M75 0l259 1465h204l-259 -1465h-204zM431 1585l-156 333h197l59 -333h-100z" />
    <glyph glyph-name="Oacute" unicode="&#xd3;" horiz-adv-x="1380" 
d="M114 538q0 386 206 669.5t535 283.5q253 0 385.5 -138t132.5 -397q0 -427 -208.5 -704t-577.5 -277q-221 0 -347 156.5t-126 406.5zM327 566q0 -190 75.5 -300.5t216.5 -110.5q249 0 395.5 231t146.5 549q0 377 -324 377q-224 0 -367 -244.5t-143 -501.5zM1142 1918
l-226 -333h-140l169 333h197z" />
    <glyph glyph-name="Ocircumflex" unicode="&#xd4;" horiz-adv-x="1380" 
d="M114 538q0 386 206 669.5t535 283.5q253 0 385.5 -138t132.5 -397q0 -427 -208.5 -704t-577.5 -277q-221 0 -347 156.5t-126 406.5zM327 566q0 -190 75.5 -300.5t216.5 -110.5q249 0 395.5 231t146.5 549q0 377 -324 377q-224 0 -367 -244.5t-143 -501.5zM1066 1582
l-130 192l-211 -192h-172l361 341h107l242 -341h-197z" />
    <glyph glyph-name="apple" horiz-adv-x="1024" 
d="M128 350v768h768v-768h-768zM256 478h512v512h-512v-512z" />
    <glyph glyph-name="Ograve" unicode="&#xd2;" horiz-adv-x="1380" 
d="M114 538q0 386 206 669.5t535 283.5q253 0 385.5 -138t132.5 -397q0 -427 -208.5 -704t-577.5 -277q-221 0 -347 156.5t-126 406.5zM327 566q0 -190 75.5 -300.5t216.5 -110.5q249 0 395.5 231t146.5 549q0 377 -324 377q-224 0 -367 -244.5t-143 -501.5zM923 1585
l-156 333h197l59 -333h-100z" />
    <glyph glyph-name="Uacute" unicode="&#xda;" horiz-adv-x="1328" 
d="M324 1465h210l-180 -1003q-6 -33 -6 -63q0 -113 68.5 -178.5t186.5 -65.5q146 0 242 83t122 229l179 998h206l-180 -1019q-39 -222 -199.5 -346.5t-399.5 -124.5q-203 0 -321 99t-118 261q0 53 10 112zM1117 1918l-226 -333h-140l169 333h197z" />
    <glyph glyph-name="Ucircumflex" unicode="&#xdb;" horiz-adv-x="1328" 
d="M324 1465h210l-180 -1003q-6 -33 -6 -63q0 -113 68.5 -178.5t186.5 -65.5q146 0 242 83t122 229l179 998h206l-180 -1019q-39 -222 -199.5 -346.5t-399.5 -124.5q-203 0 -321 99t-118 261q0 53 10 112zM1020 1582l-130 192l-211 -192h-172l361 341h107l242 -341h-197z
" />
    <glyph glyph-name="Ugrave" unicode="&#xd9;" horiz-adv-x="1328" 
d="M324 1465h210l-180 -1003q-6 -33 -6 -63q0 -113 68.5 -178.5t186.5 -65.5q146 0 242 83t122 229l179 998h206l-180 -1019q-39 -222 -199.5 -346.5t-399.5 -124.5q-203 0 -321 99t-118 261q0 53 10 112zM851 1585l-156 333h197l59 -333h-100z" />
    <glyph glyph-name="dotlessi" unicode="&#x131;" horiz-adv-x="628" 
d="M138 0l162 911h-142l35 157h327l-189 -1068h-193z" />
    <glyph glyph-name="circumflex" unicode="&#x2c6;" 
d="M810 1222l-130 192l-211 -192h-172l361 341h107l242 -341h-197z" />
    <glyph glyph-name="tilde" unicode="&#x2dc;" 
d="M1032 1432q-90 -207 -229 -207q-60 0 -130 38.5t-101 38.5q-71 0 -122 -77h-91q30 84 91.5 145.5t129.5 61.5q76 0 143 -38.5t99 -38.5q82 0 122 77h88z" />
    <glyph glyph-name="macron" unicode="&#x2c9;" 
d="M1041 1366l-25 -141h-738l25 141h738z" />
    <glyph glyph-name="breve" unicode="&#x2d8;" 
d="M1087 1550q-57 -325 -392 -325q-278 0 -278 252q0 35 7 73h141q-7 -29 -7 -54q0 -117 165 -117q191 0 221 171h143z" />
    <glyph glyph-name="dotaccent" unicode="&#x2d9;" 
d="M738 1460q48 0 83 -34.5t35 -82.5q0 -49 -35 -83.5t-83 -34.5q-49 0 -83 34.5t-34 83.5t34 83t83 34z" />
    <glyph glyph-name="ring" unicode="&#x2da;" 
d="M673 1222q-100 0 -161 47t-61 131q0 71 68 124t154 53q92 0 157 -49.5t65 -127.5q0 -81 -61.5 -129.5t-160.5 -48.5zM673 1489q-53 0 -93.5 -25.5t-40.5 -63.5q0 -90 134 -90q56 0 95.5 24t39.5 66q0 40 -40.5 64.5t-94.5 24.5z" />
    <glyph glyph-name="cedilla" unicode="&#xb8;" 
d="M301 -455l-8 99q88 0 147 32t59 90t-79 58l21 120q87 0 133.5 -44t46.5 -117q0 -112 -91.5 -175t-228.5 -63z" />
    <glyph glyph-name="hungarumlaut" unicode="&#x2dd;" 
d="M728 1508l-199 -283h-140l142 283h197zM1098 1508l-199 -283h-140l142 283h197z" />
    <glyph glyph-name="ogonek" unicode="&#x2db;" 
d="M754 -189v-149q-103 -35 -169 -35q-102 0 -167.5 55.5t-65.5 146.5q0 202 260 332l30 -161q-123 -56 -123 -150q0 -77 96 -77q66 0 139 38z" />
    <glyph glyph-name="caron" unicode="&#x2c7;" 
d="M1069 1562l-367 -337h-107l-235 337h172l144 -188l196 188h197z" />
    <glyph glyph-name="Lslash" unicode="&#x141;" horiz-adv-x="1037" 
d="M51 775l182 67l110 623h204l-96 -542l150 56v-132l-175 -64l-106 -603h662l-32 -180h-866l125 704l-158 -57v128z" />
    <glyph glyph-name="lslash" unicode="&#x142;" horiz-adv-x="604" 
d="M575 1510l-110 -539l136 68v-116l-162 -76l-51 -249q-56 -273 -56 -306q0 -98 32.5 -135t109.5 -37l-22 -140q-320 0 -320 238q0 69 49 321l42 211l-156 -69v115l180 79l127 635h201z" />
    <glyph glyph-name="Scaron" unicode="&#x160;" horiz-adv-x="985" 
d="M87 47l60 192q43 -34 128.5 -58t164.5 -24q119 0 191 58t72 160q0 85 -54.5 150t-186 160t-191.5 177t-60 205q0 198 125.5 310.5t324.5 112.5q225 0 299 -39l-57 -194q-28 23 -94 43t-123 20q-128 0 -202 -58t-74 -167q0 -46 23.5 -89t63.5 -77.5t164.5 -127.5
t183 -189.5t58.5 -224.5q0 -199 -133.5 -305.5t-352.5 -106.5q-78 0 -176 22t-154 50zM1042 1862l-367 -337h-107l-235 337h172l144 -188l196 188h197z" />
    <glyph glyph-name="scaron" unicode="&#x161;" horiz-adv-x="829" 
d="M9 64l99 180q39 -39 112 -71.5t125 -32.5q89 0 147 48t58 130q0 42 -30.5 75t-105.5 76l-141 78q-65 37 -97.5 93.5t-32.5 120.5q0 149 116 239.5t285 90.5q117 0 282 -74l-85 -176q-98 90 -211 90q-75 0 -129.5 -38.5t-54.5 -101.5q0 -46 31 -79t107 -74l140 -76
q65 -35 97 -90t32 -120q0 -172 -124.5 -272t-316.5 -100q-169 0 -303 84zM995 1562l-367 -337h-107l-235 337h172l144 -188l196 188h197z" />
    <glyph glyph-name="Zcaron" unicode="&#x17d;" horiz-adv-x="1127" 
d="M80 0v50l817 1235h-620l31 180h876v-50l-789 -1235h614l-32 -180h-897zM1138 1862l-367 -337h-107l-235 337h172l144 -188l196 188h197z" />
    <glyph glyph-name="zcaron" unicode="&#x17e;" horiz-adv-x="972" 
d="M336 170h533l-30 -170h-831v50l657 851h-549l30 170h836v-54zM1050 1562l-367 -337h-107l-235 337h172l144 -188l196 188h197z" />
    <glyph glyph-name="brokenbar" unicode="&#xa6;" 
d="M501 694v723h146v-723h-146zM501 -276v723h146v-723h-146z" />
    <glyph glyph-name="Eth" unicode="&#xd0;" horiz-adv-x="1256" 
d="M219 867l106 598q123 23 249 23q319 0 496 -149t177 -441q0 -426 -244 -662t-616 -236h-320l124 704h-159l28 163h159zM651 867l-28 -163h-230l-87 -515q58 -8 113 -8q277 0 445 205t168 523q0 182 -120.5 291t-297.5 109q-64 0 -122 -16l-72 -426h231z" />
    <glyph glyph-name="eth" unicode="&#xf0;" horiz-adv-x="1125" 
d="M496 1252l174 84q-28 43 -137 176l205 38q36 -43 102 -132l174 88l51 -71l-179 -96q76 -127 126.5 -300.5t50.5 -328.5q0 -326 -160 -528t-442 -202q-194 0 -297 110t-103 305q0 307 167 501.5t439 194.5q34 0 142 -30q-34 88 -92 195l-178 -90zM252 406q0 -256 239 -256
q169 0 268 150t99 366q0 255 -221 255q-173 0 -279 -154t-106 -361z" />
    <glyph glyph-name="Yacute" unicode="&#xdd;" horiz-adv-x="1168" 
d="M714 656l-116 -656h-200l116 656l-332 809h209l249 -625l461 625h226zM1012 1858l-226 -333h-140l169 333h197z" />
    <glyph glyph-name="Thorn" unicode="&#xde;" horiz-adv-x="1113" 
d="M306 314l-55 -314h-201l258 1465h201l-33 -190q77 14 155 14q224 0 355.5 -108.5t131.5 -306.5q0 -584 -596 -584q-106 0 -216 24zM444 1095l-106 -601q92 -31 188 -31q180 0 280 102t100 283q0 268 -294 268q-79 0 -168 -21z" />
    <glyph glyph-name="thorn" unicode="&#xfe;" horiz-adv-x="1141" 
d="M259 54l-84 -479h-190l330 1935h199l-103 -560q48 59 131.5 97.5t159.5 38.5q399 0 399 -397q0 -304 -168.5 -509t-442.5 -205q-59 0 -135.5 23t-95.5 56zM287 211q18 -32 73 -54t103 -22q209 0 322.5 141.5t113.5 386.5q0 263 -266 263q-58 0 -134.5 -40.5t-108.5 -84.5
z" />
    <glyph glyph-name="minus" unicode="&#x2212;" 
d="M960 706v-141h-838v141h838z" />
    <glyph glyph-name="onesuperior" unicode="&#xb9;" horiz-adv-x="924" 
d="M416 595l122 674l-208 -112l20 113q214 99 319 208h36l-156 -883h-133z" />
    <glyph glyph-name="twosuperior" unicode="&#xb2;" horiz-adv-x="924" 
d="M235 595l4 24l339 414q128 156 128 250q0 95 -109 95q-106 0 -190 -124l-66 63q38 74 114 123.5t156 49.5q229 0 229 -175q0 -138 -144 -315l-234 -287h334l-21 -118h-540z" />
    <glyph glyph-name="threesuperior" unicode="&#xb3;" horiz-adv-x="924" 
d="M205 657l77 102q39 -54 138 -54q85 0 138 46.5t53 129.5q0 129 -148 129h-10l18 102h6q79 0 127 45t48 122q0 91 -121 91q-85 0 -131 -44l-38 91q68 73 200 73q103 0 163.5 -50.5t60.5 -131.5t-51 -149t-123 -94q129 -45 129 -179q0 -121 -82 -211t-262 -90
q-129 0 -192 72z" />
    <glyph glyph-name="onehalf" unicode="&#xbd;" horiz-adv-x="1668" 
d="M296 595l122 674l-208 -112l20 113q214 99 319 208h36l-156 -883h-133zM393 -35h-127l973 1526h126zM943 0l4 24l339 414q128 156 128 250q0 95 -109 95q-106 0 -190 -124l-66 63q38 74 114 123.5t156 49.5q229 0 229 -175q0 -138 -144 -315l-234 -287h334l-21 -118h-540
z" />
    <glyph glyph-name="onequarter" unicode="&#xbc;" horiz-adv-x="1668" 
d="M282 595l122 674l-208 -112l20 113q214 99 319 208h36l-156 -883h-133zM378 -35h-127l973 1526h126zM1412 210l-37 -210h-130l37 210h-404l12 68l599 605h42l-101 -571h90l-19 -102h-89zM1358 622l-310 -310h252z" />
    <glyph glyph-name="threequarters" unicode="&#xbe;" horiz-adv-x="1668" 
d="M135 657l77 102q39 -54 138 -54q85 0 138 46.5t53 129.5q0 129 -148 129h-10l18 102h6q79 0 127 45t48 122q0 91 -121 91q-85 0 -131 -44l-38 91q68 73 200 73q103 0 163.5 -50.5t60.5 -131.5t-51 -149t-123 -94q129 -45 129 -179q0 -121 -82 -211t-262 -90
q-129 0 -192 72zM515 -35h-127l973 1526h126zM1476 210l-37 -210h-130l37 210h-404l12 68l599 605h42l-101 -571h90l-19 -102h-89zM1422 622l-310 -310h252z" />
    <glyph glyph-name="mu1" unicode="&#xb5;" horiz-adv-x="1140" 
d="M230 18l-77 -438h-190l262 1491h190l-109 -623q-11 -63 -11 -107q0 -195 192 -195q116 0 186.5 64t75.5 85l136 776h190l-188 -1071h-190l26 148q-49 -78 -135.5 -123t-181.5 -45q-108 0 -176 38z" />
    <glyph glyph-name="Ohm" unicode="&#x2126;" horiz-adv-x="1370" 
d="M1236 1l-510 -1l27 152q229 179 326 361.5t97 415.5q0 382 -334 382q-221 0 -357 -196.5t-136 -459.5q0 -148 53 -294.5t140 -210.5l-26 -150l-500 1l26 149h268q-82 74 -129.5 213.5t-47.5 287.5q0 356 204 598t537 242q513 0 513 -541q0 -257 -108 -468t-306 -332h289z
" />
    <glyph glyph-name="Delta" unicode="&#x2206;" horiz-adv-x="1198" 
d="M-27 0l22 124l762 1341h144l244 -1341l-22 -124h-1150zM768 1123l-527 -953h675z" />
    <glyph glyph-name="yacute" unicode="&#xfd;" horiz-adv-x="1010" 
d="M31 -420v191q186 0 264 56t112 168q-141 0 -187 278l-134 798h207l118 -777q17 -115 82 -115l386 892h216l-537 -1199q-68 -152 -181 -222t-346 -70zM897 1558l-226 -333h-140l169 333h197z" />
    <glyph glyph-name="multiply" unicode="&#xd7;" 
d="M544 728l317 317l100 -99l-317 -317l314 -315l-100 -100l-314 315l-317 -317l-100 99l317 317l-321 321l100 100z" />
    <glyph glyph-name="sfthyphen" unicode="&#xad;" horiz-adv-x="752" 
d="M144 506l30 175h428l-30 -175h-428z" />
    <glyph glyph-name="dotlessj" horiz-adv-x="751" 
d="M-139 -415l8 168q345 0 393 252l172 906h-141l34 160h329l-193 -1055q-42 -228 -186 -329.5t-416 -101.5z" />
    <glyph glyph-name="f007" horiz-adv-x="752" 
d="M411 1658l54 -57q-62 -61 -70 -82.5t-8 -39.5q0 -41 42 -75t42 -81q0 -98 -106 -98q-108 0 -108 145q0 168 154 288z" />
    <glyph glyph-name="franc" unicode="&#x20a3;" horiz-adv-x="1928" 
d="M492 1285l-72 -407h515l-30 -170h-515l-125 -708h-210l262 1465h911l-31 -180h-705zM1910 883q-60 48 -140 48q-101 0 -193 -93.5t-115 -223.5l-109 -614h-190l189 1071h190l-30 -171q138 191 343 191q35 0 109 -14z" />
    <glyph glyph-name="Gbreve" unicode="&#x11e;" horiz-adv-x="1385" 
d="M1276 1406l-60 -191q-128 95 -278 95q-269 0 -441 -208t-172 -524q0 -423 399 -423q160 0 276 96l61 343h-203l30 170h403l-113 -638q-207 -151 -527 -151q-539 0 -539 564q0 421 239 686t625 265q216 0 300 -84zM1297 1910q-57 -325 -392 -325q-278 0 -278 252
q0 35 7 73h141q-7 -29 -7 -54q0 -117 165 -117q191 0 221 171h143z" />
    <glyph glyph-name="gbreve" unicode="&#x11f;" horiz-adv-x="1028" 
d="M-13 -300l90 140q183 -92 303 -92q132 0 220 49t88 137q0 44 -29.5 72.5t-100.5 40.5l-176 30q-107 27 -107 109q0 66 171 133l-34 -1q-117 0 -205.5 87.5t-88.5 210.5q0 210 135 342.5t345 132.5q151 0 238 -72l90 102l105 -108l-99 -103q29 -41 29 -129
q0 -172 -87 -295t-227.5 -172.5t-140.5 -92.5q0 -35 38 -35q14 0 41.5 4.5t41.5 4.5q250 0 250 -226q0 -177 -157.5 -283t-374.5 -106q-220 0 -358 120zM584 938q-115 0 -193.5 -89.5t-78.5 -210.5q0 -218 165 -218q112 0 198 109.5t86 232.5q0 81 -48 128.5t-129 47.5z
M1120 1550q-57 -325 -392 -325q-278 0 -278 252q0 35 7 73h141q-7 -29 -7 -54q0 -117 165 -117q191 0 221 171h143z" />
    <glyph glyph-name="Idotaccent" unicode="&#x130;" horiz-adv-x="570" 
d="M75 0l259 1465h204l-259 -1465h-204zM443 1760q48 0 83 -34.5t35 -82.5q0 -49 -35 -83.5t-83 -34.5q-49 0 -83 34.5t-34 83.5t34 83t83 34z" />
    <glyph glyph-name="Scedilla" unicode="&#x15e;" horiz-adv-x="985" 
d="M87 47l60 192q43 -34 128.5 -58t164.5 -24q119 0 191 58t72 160q0 85 -54.5 150t-186 160t-191.5 177t-60 205q0 198 125.5 310.5t324.5 112.5q225 0 299 -39l-57 -194q-28 23 -94 43t-123 20q-128 0 -202 -58t-74 -167q0 -46 23.5 -89t63.5 -77.5t164.5 -127.5
t183 -189.5t58.5 -224.5q0 -199 -133.5 -305.5t-352.5 -106.5q-78 0 -176 22t-154 50zM95 -455l-8 99q88 0 147 32t59 90t-79 58l21 120q87 0 133.5 -44t46.5 -117q0 -112 -91.5 -175t-228.5 -63z" />
    <glyph glyph-name="scedilla" unicode="&#x15f;" horiz-adv-x="829" 
d="M9 64l99 180q39 -39 112 -71.5t125 -32.5q89 0 147 48t58 130q0 42 -30.5 75t-105.5 76l-141 78q-65 37 -97.5 93.5t-32.5 120.5q0 149 116 239.5t285 90.5q117 0 282 -74l-85 -176q-98 90 -211 90q-75 0 -129.5 -38.5t-54.5 -101.5q0 -46 31 -79t107 -74l140 -76
q65 -35 97 -90t32 -120q0 -172 -124.5 -272t-316.5 -100q-169 0 -303 84zM98 -455l-8 99q88 0 147 32t59 90t-79 58l21 120q87 0 133.5 -44t46.5 -117q0 -112 -91.5 -175t-228.5 -63z" />
    <glyph glyph-name="Cacute" unicode="&#x106;" horiz-adv-x="1225" 
d="M1204 1443l-55 -195q-84 64 -237 64q-236 0 -397.5 -235.5t-161.5 -508.5q0 -413 343 -413q177 0 344 145l-16 -212q-123 -113 -381 -113q-240 0 -371 148t-131 408q0 402 218.5 680.5t564.5 278.5q174 0 280 -47zM1127 1918l-226 -333h-140l169 333h197z" />
    <glyph glyph-name="cacute" unicode="&#x107;" horiz-adv-x="942" 
d="M928 1037l-35 -163q-72 57 -193 57q-184 0 -297.5 -145.5t-113.5 -357.5q0 -130 73.5 -207.5t167.5 -77.5q145 0 278 89l-21 -194q-131 -58 -287 -58q-198 0 -304 113.5t-106 301.5q0 306 168 501t428 195q154 0 242 -54zM909 1558l-226 -333h-140l169 333h197z" />
    <glyph glyph-name="Ccaron" unicode="&#x10c;" horiz-adv-x="1225" 
d="M1204 1443l-55 -195q-84 64 -237 64q-236 0 -397.5 -235.5t-161.5 -508.5q0 -413 343 -413q177 0 344 145l-16 -212q-123 -113 -381 -113q-240 0 -371 148t-131 408q0 402 218.5 680.5t564.5 278.5q174 0 280 -47zM1279 1922l-367 -337h-107l-235 337h172l144 -188
l196 188h197z" />
    <glyph glyph-name="ccaron" unicode="&#x10d;" horiz-adv-x="942" 
d="M928 1037l-35 -163q-72 57 -193 57q-184 0 -297.5 -145.5t-113.5 -357.5q0 -130 73.5 -207.5t167.5 -77.5q145 0 278 89l-21 -194q-131 -58 -287 -58q-198 0 -304 113.5t-106 301.5q0 306 168 501t428 195q154 0 242 -54zM1021 1562l-367 -337h-107l-235 337h172
l144 -188l196 188h197z" />
    <glyph glyph-name="dcroat" unicode="&#x111;" horiz-adv-x="1141" 
d="M1194 1510l-31 -179h113l-26 -131h-110l-207 -1200h-188l23 123q-115 -142 -316 -142q-174 0 -272 105.5t-98 290.5q0 316 168.5 514t428.5 198q152 0 233 -126l44 237h-305l22 131h307l33 179h181zM877 774q2 10 -26 56t-69 72.5t-86 26.5q-177 0 -293 -143.5
t-116 -367.5q0 -283 232 -283q106 0 197 103.5t117 267.5z" />
    <glyph glyph-name="overscore" unicode="&#xaf;" 
d="M-8 1546v129h1085v-129h-1085z" />
    <glyph glyph-name="commaaccenthigh" horiz-adv-x="752" 
d="M296 1092l-40 68q82 54 93 77.5t11 46.5q0 26 -27.5 60.5t-27.5 62.5q0 103 97 103q111 0 111 -115q0 -91 -61 -174.5t-156 -128.5z" />
    <glyph glyph-name="middot" unicode="&#xb7;" horiz-adv-x="752" 
d="M355 801q62 0 106 -44t44 -106t-44 -106.5t-106 -44.5t-106 44.5t-44 106.5t44 106t106 44z" />
    <glyph glyph-name="Abreve" unicode="&#x102;" horiz-adv-x="1251" 
d="M936 0l-46 309h-525l-173 -309h-224l857 1485h53l290 -1485h-232zM779 1082l-335 -626h425zM1217 1910q-57 -325 -392 -325q-278 0 -278 252q0 35 7 73h141q-7 -29 -7 -54q0 -117 165 -117q191 0 221 171h143z" />
    <glyph glyph-name="abreve" unicode="&#x103;" horiz-adv-x="1076" 
d="M1052 1004l-131 -623q-8 -38 -8 -92q0 -156 49 -289h-194q-16 32 -34 108q-47 -57 -140 -92.5t-197 -35.5q-158 0 -246.5 93.5t-88.5 268.5q0 294 173.5 521.5t446.5 227.5q258 0 370 -87zM842 893q-27 43 -182 43q-158 0 -278 -168t-120 -420q0 -213 190 -213
q99 0 186 102.5t121 262.5zM1129 1550q-57 -325 -392 -325q-278 0 -278 252q0 35 7 73h141q-7 -29 -7 -54q0 -117 165 -117q191 0 221 171h143z" />
    <glyph glyph-name="Aogonek" unicode="&#x104;" horiz-adv-x="1251" 
d="M1160 -338q-102 -35 -169 -35q-102 0 -167 55t-65 147q0 155 162 273l-31 207h-525l-173 -309h-224l857 1485h53l290 -1485h-120q-15 0 -69 -43.5t-54 -106.5q0 -77 96 -77q67 0 139 38v-149zM869 456l-90 626l-335 -626h425z" />
    <glyph glyph-name="aogonek" unicode="&#x105;" horiz-adv-x="1076" 
d="M1094 -189v-149q-103 -35 -169 -35q-102 0 -167.5 55.5t-65.5 146.5q0 124 90 220q-19 26 -27 59q-47 -57 -140 -92.5t-196 -35.5q-159 0 -247 93t-88 269q0 294 173.5 521.5t446.5 227.5q257 0 370 -87l-132 -623q-8 -38 -8 -92q0 -129 69 -289h-21q-15 0 -69 -43.5
t-54 -106.5q0 -77 96 -77q66 0 139 38zM863 893q-27 43 -181 43q-159 0 -278.5 -168.5t-119.5 -419.5q0 -213 190 -213q99 0 185.5 102.5t120.5 262.5z" />
    <glyph glyph-name="Dcaron" unicode="&#x10e;" horiz-adv-x="1256" 
d="M387 0h-320l258 1465q123 23 249 23q319 0 496 -149t177 -441q0 -426 -244 -662t-616 -236zM492 1293l-186 -1104q58 -8 113 -8q277 0 445 205t168 523q0 182 -120.5 291t-297.5 109q-64 0 -122 -16zM1100 1922l-367 -337h-107l-235 337h172l144 -188l196 188h197z" />
    <glyph glyph-name="dcaron" unicode="&#x10f;" horiz-adv-x="1416" 
d="M728 0l23 123q-116 -142 -317 -142q-174 0 -272 106.5t-98 289.5q0 313 168 512.5t430 199.5q152 0 233 -126l101 547h181l-261 -1510h-188zM860 774q2 9 -26.5 55.5t-69 73t-85.5 26.5q-177 0 -293.5 -143.5t-116.5 -367.5q0 -283 233 -283q105 0 196 103.5t118 267.5z
M1268 1092l-40 68q82 54 93 77.5t11 46.5q0 26 -27.5 60.5t-27.5 62.5q0 103 97 103q111 0 111 -115q0 -91 -61 -174.5t-156 -128.5z" />
    <glyph glyph-name="Dslash" unicode="&#x110;" horiz-adv-x="1256" 
d="M219 867l106 598q123 23 249 23q319 0 496 -149t177 -441q0 -426 -244 -662t-616 -236h-320l124 704h-159l28 163h159zM651 867l-28 -163h-230l-87 -515q58 -8 113 -8q277 0 445 205t168 523q0 182 -120.5 291t-297.5 109q-64 0 -122 -16l-72 -426h231z" />
    <glyph glyph-name="Eogonek" unicode="&#x118;" horiz-adv-x="1097" 
d="M854 -189v-149q-103 -35 -169 -35q-102 0 -167.5 55.5t-65.5 146.5t58 171h-463l259 1465h885l-32 -180h-675l-72 -407h484l-30 -170h-484l-93 -528h664l-32 -180h-179q-15 0 -69 -43.5t-54 -106.5q0 -77 96 -77q66 0 139 38z" />
    <glyph glyph-name="eogonek" unicode="&#x119;" horiz-adv-x="1100" 
d="M754 -338q-103 -35 -169 -35q-102 0 -167.5 55.5t-65.5 146.5q0 94 47 163q-295 63 -295 452q0 273 174 460t438 187q159 0 254 -68t95 -194q0 -175 -148 -276t-364 -101q-143 0 -242 54q-9 -48 -9 -92q0 -132 74 -203t207 -71q118 0 238 87l-20 -194q-119 -39 -190 -48
q-92 -48 -92 -135q0 -77 96 -77q66 0 139 38v-149zM344 644q76 -34 179 -34q156 0 255 50.5t99 147.5q0 123 -170 123q-259 0 -363 -287z" />
    <glyph glyph-name="Ecaron" unicode="&#x11a;" horiz-adv-x="1097" 
d="M484 1285l-72 -407h484l-30 -170h-484l-93 -528h664l-32 -180h-874l259 1465h885l-33 -180h-674zM1159 1922l-367 -337h-107l-235 337h172l144 -188l196 188h197z" />
    <glyph glyph-name="ecaron" unicode="&#x11b;" horiz-adv-x="1100" 
d="M311 506q-9 -48 -9 -92q0 -132 74 -203t207 -71q118 0 238 87l-20 -194q-160 -53 -283 -53q-414 0 -414 464q0 273 174 460t438 187q159 0 254 -68t95 -194q0 -175 -148 -276t-363 -101q-144 0 -243 54zM344 644q76 -34 179 -34q156 0 255 50.5t99 147.5q0 123 -170 123
q-259 0 -363 -287zM1119 1562l-367 -337h-107l-235 337h172l144 -188l196 188h197z" />
    <glyph glyph-name="Lacute" unicode="&#x139;" horiz-adv-x="1037" 
d="M84 0l259 1465h204l-227 -1285h662l-32 -180h-866zM777 1918l-226 -333h-140l169 333h197z" />
    <glyph glyph-name="lacute" unicode="&#x13a;" horiz-adv-x="656" 
d="M489 120l-22 -140q-321 0 -321 238q0 72 50 321l192 971h198l-183 -912q-57 -284 -57 -356q0 -122 143 -122zM787 1918l-226 -333h-140l169 333h197z" />
    <glyph glyph-name="Lcaron" unicode="&#x13d;" horiz-adv-x="1037" 
d="M84 0l259 1465h204l-227 -1285h662l-32 -180h-866zM806 1073l-40 68q82 54 93 77.5t11 46.5q0 26 -27.5 60.5t-27.5 62.5q0 103 97 103q111 0 111 -115q0 -91 -61 -174.5t-156 -128.5z" />
    <glyph glyph-name="lcaron" unicode="&#x13e;" horiz-adv-x="656" 
d="M475 120l-22 -140q-321 0 -321 238q0 72 50 321l192 971h198l-183 -912q-57 -284 -57 -356q0 -122 143 -122zM672 1092l-40 68q82 54 93 77.5t11 46.5q0 26 -27.5 60.5t-27.5 62.5q0 103 97 103q111 0 111 -115q0 -91 -61 -174.5t-156 -128.5z" />
    <glyph glyph-name="Ldot" unicode="&#x13f;" horiz-adv-x="1037" 
d="M84 0l259 1465h204l-227 -1285h662l-32 -180h-866zM864 790q48 0 83 -34.5t35 -82.5q0 -49 -35 -83.5t-83 -34.5q-49 0 -83 34.5t-34 83.5t34 83t83 34z" />
    <glyph glyph-name="ldot" unicode="&#x140;" horiz-adv-x="1037" 
d="M489 120l-22 -140q-321 0 -321 238q0 72 50 321l192 971h198l-183 -912q-57 -284 -57 -356q0 -122 143 -122zM842 830q48 0 83 -34.5t35 -82.5q0 -49 -35 -83.5t-83 -34.5q-49 0 -83 34.5t-34 83.5t34 83t83 34z" />
    <glyph glyph-name="Nacute" unicode="&#x143;" horiz-adv-x="1307" 
d="M1003 -20l-572 1040l-172 -1020h-200l259 1465h80l560 -998l169 998h198l-262 -1485h-60zM1037 1918l-226 -333h-140l169 333h197z" />
    <glyph glyph-name="nacute" unicode="&#x144;" horiz-adv-x="1119" 
d="M728 0l112 623q15 83 15 138q0 170 -177 170q-68 0 -145.5 -40t-123.5 -95l-139 -796h-192l144 812q5 28 5 66q0 102 -21 177l184 36q27 -146 26 -159q122 159 352 159q290 0 290 -296q0 -59 -13 -132l-115 -663h-202zM1024 1558l-226 -333h-140l169 333h197z" />
    <glyph glyph-name="Ncaron" unicode="&#x147;" horiz-adv-x="1307" 
d="M1003 -20l-572 1040l-172 -1020h-200l259 1465h80l560 -998l169 998h198l-262 -1485h-60zM1229 1922l-367 -337h-107l-235 337h172l144 -188l196 188h197z" />
    <glyph glyph-name="ncaron" unicode="&#x148;" horiz-adv-x="1119" 
d="M728 0l112 623q15 83 15 138q0 170 -177 170q-68 0 -145.5 -40t-123.5 -95l-139 -796h-192l144 812q5 28 5 66q0 102 -21 177l184 36q27 -146 26 -159q122 159 352 159q290 0 290 -296q0 -59 -13 -132l-115 -663h-202zM1126 1562l-367 -337h-107l-235 337h172l144 -188
l196 188h197z" />
    <glyph glyph-name="Odblacute" unicode="&#x150;" horiz-adv-x="1380" 
d="M114 538q0 386 206 669.5t535 283.5q253 0 385.5 -138t132.5 -397q0 -427 -208.5 -704t-577.5 -277q-221 0 -347 156.5t-126 406.5zM327 566q0 -190 75.5 -300.5t216.5 -110.5q249 0 395.5 231t146.5 549q0 377 -324 377q-224 0 -367 -244.5t-143 -501.5zM971 1868
l-199 -283h-140l142 283h197zM1341 1868l-199 -283h-140l142 283h197z" />
    <glyph glyph-name="odblacute" unicode="&#x151;" horiz-adv-x="1099" 
d="M73 394q0 287 168 492t427 205q195 0 298 -105.5t103 -299.5q0 -154 -61.5 -320t-201 -276t-334.5 -110q-193 0 -296 108.5t-103 305.5zM273 406q0 -271 227 -271q169 0 268.5 164t99.5 379q0 258 -227 258q-115 0 -202.5 -82t-126.5 -210t-39 -238zM778 1508l-199 -283
h-140l142 283h197zM1148 1508l-199 -283h-140l142 283h197z" />
    <glyph glyph-name="Racute" unicode="&#x154;" horiz-adv-x="1192" 
d="M834 0l-230 629q-77 0 -211 10l-112 -639h-210l258 1465q41 1 161.5 8t197.5 7q232 0 357.5 -83t125.5 -238q0 -183 -108.5 -320.5t-272.5 -174.5l273 -664h-229zM507 1285l-84 -476q74 -10 139 -10q178 0 286.5 74t108.5 203q0 119 -76 169t-254 50q-38 0 -120 -10z
M961 1918l-226 -333h-140l169 333h197z" />
    <glyph glyph-name="racute" unicode="&#x155;" horiz-adv-x="853" 
d="M835 883q-60 48 -140 48q-101 0 -193 -93.5t-115 -223.5l-109 -614h-190l189 1071h190l-30 -171q138 191 343 191q35 0 109 -14zM929 1558l-226 -333h-140l169 333h197z" />
    <glyph glyph-name="Rcaron" unicode="&#x158;" horiz-adv-x="1192" 
d="M834 0l-230 629q-77 0 -211 10l-112 -639h-210l258 1465q41 1 161.5 8t197.5 7q232 0 357.5 -83t125.5 -238q0 -183 -108.5 -320.5t-272.5 -174.5l273 -664h-229zM507 1285l-84 -476q74 -10 139 -10q178 0 286.5 74t108.5 203q0 119 -76 169t-254 50q-38 0 -120 -10z
M1124 1922l-367 -337h-107l-235 337h172l144 -188l196 188h197z" />
    <glyph glyph-name="rcaron" unicode="&#x159;" horiz-adv-x="853" 
d="M835 883q-60 48 -140 48q-101 0 -193 -93.5t-115 -223.5l-109 -614h-190l189 1071h190l-30 -171q138 191 343 191q35 0 109 -14zM1010 1562l-367 -337h-107l-235 337h172l144 -188l196 188h197z" />
    <glyph glyph-name="Sacute" unicode="&#x15a;" horiz-adv-x="985" 
d="M87 47l60 192q43 -34 128.5 -58t164.5 -24q119 0 191 58t72 160q0 85 -54.5 150t-186 160t-191.5 177t-60 205q0 198 125.5 310.5t324.5 112.5q225 0 299 -39l-57 -194q-28 23 -94 43t-123 20q-128 0 -202 -58t-74 -167q0 -46 23.5 -89t63.5 -77.5t164.5 -127.5
t183 -189.5t58.5 -224.5q0 -199 -133.5 -305.5t-352.5 -106.5q-78 0 -176 22t-154 50zM933 1918l-226 -333h-140l169 333h197z" />
    <glyph glyph-name="sacute" unicode="&#x15b;" horiz-adv-x="829" 
d="M9 64l99 180q39 -39 112 -71.5t125 -32.5q89 0 147 48t58 130q0 42 -30.5 75t-105.5 76l-141 78q-65 37 -97.5 93.5t-32.5 120.5q0 149 116 239.5t285 90.5q117 0 282 -74l-85 -176q-98 90 -211 90q-75 0 -129.5 -38.5t-54.5 -101.5q0 -46 31 -79t107 -74l140 -76
q65 -35 97 -90t32 -120q0 -172 -124.5 -272t-316.5 -100q-169 0 -303 84zM883 1558l-226 -333h-140l169 333h197z" />
    <glyph glyph-name="Tcommaaccent" unicode="&#x21a;" horiz-adv-x="1189" 
d="M828 1285l-226 -1285h-205l226 1285h-466l32 180h1153l-32 -180h-482zM361 -528l-40 68q82 54 93 77.5t11 46.5q0 26 -27.5 60.5t-27.5 62.5q0 103 97 103q111 0 111 -115q0 -91 -61 -174.5t-156 -128.5z" />
    <glyph glyph-name="tcommaaccent" unicode="&#x21b;" horiz-adv-x="860" 
d="M321 921h-124l32 150h124l44 224l217 82l-71 -306h294l-32 -150h-294l-112 -532q-13 -62 -13 -96q0 -153 152 -153q74 0 159 37l-7 -167q-82 -30 -265 -30q-114 0 -177.5 70.5t-63.5 193.5q0 28 9 69zM214 -528l-40 68q82 54 93 77.5t11 46.5q0 26 -27.5 60.5t-27.5 62.5
q0 103 97 103q111 0 111 -115q0 -91 -61 -174.5t-156 -128.5z" />
    <glyph glyph-name="Tcaron" unicode="&#x164;" horiz-adv-x="1189" 
d="M828 1285l-226 -1285h-205l226 1285h-466l32 180h1153l-32 -180h-482zM1156 1862l-367 -337h-107l-235 337h172l144 -188l196 188h197z" />
    <glyph glyph-name="tcaron" unicode="&#x165;" horiz-adv-x="1016" 
d="M321 921h-124l32 150h124l44 224l217 82l-71 -306h294l-32 -150h-294l-112 -532q-13 -62 -13 -96q0 -153 152 -153q74 0 159 37l-7 -167q-82 -30 -265 -30q-114 0 -177.5 70.5t-63.5 193.5q0 28 9 69zM947 961l-40 68q82 54 93 77.5t11 46.5q0 26 -27.5 60.5t-27.5 62.5
q0 103 97 103q111 0 111 -115q0 -91 -61 -174.5t-156 -128.5z" />
    <glyph glyph-name="Uring" unicode="&#x16e;" horiz-adv-x="1328" 
d="M324 1465h210l-180 -1003q-6 -33 -6 -63q0 -113 68.5 -178.5t186.5 -65.5q146 0 242 83t122 229l179 998h206l-180 -1019q-39 -222 -199.5 -346.5t-399.5 -124.5q-203 0 -321 99t-118 261q0 53 10 112zM853 1582q-100 0 -161 47t-61 131q0 71 68 124t154 53
q92 0 157 -49.5t65 -127.5q0 -81 -61.5 -129.5t-160.5 -48.5zM853 1849q-53 0 -93.5 -25.5t-40.5 -63.5q0 -90 134 -90q56 0 95.5 24t39.5 66q0 40 -40.5 64.5t-94.5 24.5z" />
    <glyph glyph-name="uring" unicode="&#x16f;" horiz-adv-x="1140" 
d="M431 1071l-125 -683q-8 -44 -8 -81q0 -167 174 -167q107 0 205.5 80t118.5 191l122 660h200l-196 -1071h-200l28 151q-112 -171 -388 -171q-125 0 -195 74t-70 210q0 48 10 104l124 703h200zM713 1222q-100 0 -161 47t-61 131q0 71 68 124t154 53q92 0 157 -49.5
t65 -127.5q0 -81 -61.5 -129.5t-160.5 -48.5zM713 1489q-53 0 -93.5 -25.5t-40.5 -63.5q0 -90 134 -90q56 0 95.5 24t39.5 66q0 40 -40.5 64.5t-94.5 24.5z" />
    <glyph glyph-name="Udblacute" unicode="&#x170;" horiz-adv-x="1328" 
d="M324 1465h210l-180 -1003q-6 -33 -6 -63q0 -113 68.5 -178.5t186.5 -65.5q146 0 242 83t122 229l179 998h206l-180 -1019q-39 -222 -199.5 -346.5t-399.5 -124.5q-203 0 -321 99t-118 261q0 53 10 112zM908 1868l-199 -283h-140l142 283h197zM1278 1868l-199 -283h-140
l142 283h197z" />
    <glyph glyph-name="udblacute" unicode="&#x171;" horiz-adv-x="1140" 
d="M431 1071l-125 -683q-8 -44 -8 -81q0 -167 174 -167q107 0 205.5 80t118.5 191l122 660h200l-196 -1071h-200l28 151q-112 -171 -388 -171q-125 0 -195 74t-70 210q0 48 10 104l124 703h200zM788 1508l-199 -283h-140l142 283h197zM1158 1508l-199 -283h-140l142 283h197
z" />
    <glyph glyph-name="Zacute" unicode="&#x179;" horiz-adv-x="1127" 
d="M80 0v50l817 1235h-620l31 180h876v-50l-789 -1235h614l-32 -180h-897zM1036 1918l-226 -333h-140l169 333h197z" />
    <glyph glyph-name="zacute" unicode="&#x17a;" horiz-adv-x="972" 
d="M336 170h533l-30 -170h-831v50l657 851h-549l30 170h836v-54zM878 1558l-226 -333h-140l169 333h197z" />
    <glyph glyph-name="Zdot" unicode="&#x17b;" horiz-adv-x="1127" 
d="M80 0v50l817 1235h-620l31 180h876v-50l-789 -1235h614l-32 -180h-897zM779 1820q48 0 83 -34.5t35 -82.5q0 -49 -35 -83.5t-83 -34.5q-49 0 -83 34.5t-34 83.5t34 83t83 34z" />
    <glyph glyph-name="zdot" unicode="&#x17c;" horiz-adv-x="972" 
d="M336 170h533l-30 -170h-831v50l657 851h-549l30 170h836v-54zM638 1460q48 0 83 -34.5t35 -82.5q0 -49 -35 -83.5t-83 -34.5q-49 0 -83 34.5t-34 83.5t34 83t83 34z" />
    <glyph glyph-name="foursuperior" horiz-adv-x="924" 
d="M652 805l-37 -210h-130l37 210h-404l12 68l599 605h42l-101 -571h90l-19 -102h-89zM598 1217l-310 -310h252z" />
    <glyph glyph-name="currency" unicode="&#xa4;" 
d="M983 246l-143 144q-121 -84 -253 -84q-131 0 -253 84l-143 -144l-84 88l143 140q-82 127 -82 252q0 124 82 251l-143 140l84 88l143 -143q122 83 253 83q132 0 253 -83l143 143l85 -88l-143 -140q82 -127 82 -251q0 -125 -82 -252l143 -140zM287 726q0 -125 87 -212.5
t212 -87.5t212 88t87 212q0 125 -87 212t-212 87q-124 0 -211.5 -87t-87.5 -212z" />
    <glyph glyph-name="questiongreek" unicode="&#x37e;" horiz-adv-x="752" 
d="M442 1071q61 0 105.5 -43.5t44.5 -105.5t-43.5 -107t-106.5 -45t-106 44.5t-43 107.5q0 57 42 103t107 46zM137 -258q195 133 195 238q0 35 -25 75q-76 48 -76 115q0 55 43.5 88t96.5 33q59 0 101 -48t42 -112q0 -132 -71 -240t-261 -227z" />
    <glyph glyph-name="tonos" unicode="&#x384;" horiz-adv-x="1073" 
d="M942 1618l-197 -334h-161l139 334h219z" />
    <glyph glyph-name="dieresistonos" unicode="&#x385;" horiz-adv-x="1073" 
d="M899 1618l-147 -354h-111l84 354h174zM1036 1518q48 0 81.5 -32t33.5 -79t-33.5 -81t-81.5 -34q-47 0 -78.5 33.5t-31.5 81.5t31.5 79.5t78.5 31.5zM451 1518q47 0 79.5 -32t32.5 -79q0 -48 -32.5 -81.5t-79.5 -33.5q-49 0 -81 33.5t-32 81.5q0 47 32.5 79t80.5 32z" />
    <glyph glyph-name="Alphatonos" unicode="&#x386;" horiz-adv-x="1251" 
d="M936 0l-45 309h-526l-172 -309h-226l858 1485h54l288 -1485h-231zM778 1081l-334 -624h424zM494 1464l-205 -350h-156l141 350h220z" />
    <glyph glyph-name="anoteleia" unicode="&#x387;" horiz-adv-x="752" 
d="M354 801q63 0 107.5 -44t44.5 -106q0 -63 -44.5 -107t-107.5 -44q-61 0 -105 44.5t-44 106.5q0 61 44 105.5t105 44.5z" />
    <glyph glyph-name="Epsilontonos" unicode="&#x388;" horiz-adv-x="1323" 
d="M709 1284l-72 -405h485l-30 -170h-484l-94 -529h664l-31 -180h-875l258 1464h887l-35 -180h-673zM373 1464l-205 -350h-156l142 350h219z" />
    <glyph glyph-name="Etatonos" unicode="&#x389;" horiz-adv-x="1544" 
d="M1118 0l125 709h-641l-125 -709h-205l258 1464h207l-104 -585h639l104 585h205l-260 -1464h-203zM373 1464l-205 -350h-156l142 350h219z" />
    <glyph glyph-name="Iotatonos" unicode="&#x38a;" horiz-adv-x="768" 
d="M274 0l258 1464h205l-260 -1464h-203zM373 1464l-205 -350h-156l142 350h219z" />
    <glyph glyph-name="Omicrontonos" unicode="&#x38c;" horiz-adv-x="1503" 
d="M238 539q0 382 203.5 667t535.5 285q252 0 385 -137.5t133 -397.5q0 -429 -208.5 -705t-575.5 -276q-222 0 -347.5 156.5t-125.5 407.5zM451 565q0 -188 74.5 -298.5t215.5 -110.5q252 0 397.5 231.5t145.5 548.5q0 377 -323 377q-144 0 -260 -107.5t-183 -291
t-67 -349.5zM373 1464l-205 -350h-156l142 350h219z" />
    <glyph glyph-name="Upsilontonos" unicode="&#x38e;" horiz-adv-x="1462" 
d="M1010 655l-117 -655h-201l117 655l-332 809h209l248 -624l463 624h225zM373 1464l-205 -350h-156l142 350h219z" />
    <glyph glyph-name="Omegatonos" unicode="&#x38f;" horiz-adv-x="1554" 
d="M1395 0h-549v51q283 285 377 488t94 405q0 181 -84.5 278t-239.5 97q-210 0 -357 -183t-147 -474q0 -176 49.5 -320t147.5 -291v-51h-563l33 172q182 0 278 -10q-158 245 -158 497q0 353 211 596.5t519 243.5q247 0 385.5 -147.5t138.5 -403.5q0 -230 -110 -439.5
t-265 -346.5q96 10 272 10zM373 1464l-205 -350h-156l142 350h219z" />
    <glyph glyph-name="iotadieresistonos" unicode="&#x390;" horiz-adv-x="551" 
d="M492 1071q-118 -609 -130 -676t-12 -114q0 -159 76 -281h-213q-66 109 -66 246q0 77 28 219l118 606h199zM598 1618l-147 -354h-111l84 354h174zM735 1518q48 0 81.5 -32t33.5 -79q0 -48 -33.5 -81.5t-81.5 -33.5q-47 0 -78.5 33.5t-31.5 81.5q0 47 31.5 79t78.5 32z
M150 1518q47 0 79.5 -32t32.5 -79q0 -48 -32.5 -81.5t-79.5 -33.5q-49 0 -81 33.5t-32 81.5q0 47 32.5 79t80.5 32z" />
    <glyph glyph-name="Alpha" unicode="&#x391;" horiz-adv-x="1251" 
d="M936 0l-45 309h-526l-172 -309h-226l858 1485h54l288 -1485h-231zM778 1081l-334 -624h424z" />
    <glyph glyph-name="Beta" unicode="&#x392;" horiz-adv-x="1159" 
d="M86 0l260 1464q154 23 275 23q518 0 518 -344q0 -113 -82 -211t-193 -111q244 -46 244 -336q0 -247 -172 -372t-553 -125q-107 0 -297 12zM524 1305l-65 -406q86 -6 139 -6q336 0 336 256q0 166 -260 166q-38 0 -150 -10zM424 731l-100 -561q61 -10 120 -10
q200 0 328.5 80t128.5 223q0 276 -350 276q-67 0 -127 -8z" />
    <glyph glyph-name="Gamma" unicode="&#x393;" horiz-adv-x="1055" 
d="M1180 1464l-31 -180h-647l-228 -1284h-206l258 1464h854z" />
    <glyph glyph-name="Epsilon" unicode="&#x395;" horiz-adv-x="1098" 
d="M483 1284l-71 -405h485l-31 -170h-483l-94 -529h663l-30 -180h-875l258 1464h887l-35 -180h-674z" />
    <glyph glyph-name="Zeta" unicode="&#x396;" horiz-adv-x="1126" 
d="M80 0v49l817 1235h-621l31 180h877v-49l-789 -1235h615l-33 -180h-897z" />
    <glyph glyph-name="Eta" unicode="&#x397;" horiz-adv-x="1339" 
d="M913 0l125 709h-641l-125 -709h-204l258 1464h206l-104 -585h639l104 585h205l-260 -1464h-203z" />
    <glyph glyph-name="Theta" unicode="&#x398;" horiz-adv-x="1415" 
d="M115 539q0 240 97.5 467t269.5 356t388 129q257 0 397 -140.5t140 -396.5q0 -416 -216.5 -697.5t-586.5 -281.5q-232 0 -360.5 154t-128.5 410zM326 565q0 -196 77.5 -303.5t227.5 -107.5q257 0 412 235.5t155 546.5q0 185 -86.5 282t-253.5 97q-227 0 -379.5 -237
t-152.5 -513zM1063 840l-35 -176h-567l35 176h567z" />
    <glyph glyph-name="Iota" unicode="&#x399;" horiz-adv-x="569" 
d="M76 0l258 1464h205l-260 -1464h-203z" />
    <glyph glyph-name="Kappa" unicode="&#x39a;" horiz-adv-x="1180" 
d="M868 0l-282 674l-244 -277l-72 -397h-200l258 1464h200l-131 -757l666 757h233l-551 -635l355 -829h-232z" />
    <glyph glyph-name="Lambda" unicode="&#x39b;" horiz-adv-x="1204" 
d="M1118 0h-231l-162 1063l-565 -1063h-234l846 1485h53z" />
    <glyph glyph-name="Mu" unicode="&#x39c;" horiz-adv-x="1559" 
d="M1247 0l-20 905l-488 -925h-49l-158 933l-337 -913h-191l522 1464h101l159 -1028l517 1028h104l41 -1464h-201z" />
    <glyph glyph-name="Nu" unicode="&#x39d;" horiz-adv-x="1307" 
d="M1004 -20l-574 1040l-172 -1020h-199l258 1464h80l561 -997l168 997h199l-262 -1484h-59z" />
    <glyph glyph-name="Xi" unicode="&#x39e;" horiz-adv-x="1233" 
d="M1300 1464l-30 -168h-408l-74 -426h308l-29 -159h-307l-94 -541h417l-30 -170h-1033l31 170h418l94 541h-307l29 159h307l74 426h-408l31 168h1011z" />
    <glyph glyph-name="Omicron" unicode="&#x39f;" horiz-adv-x="1380" 
d="M115 539q0 382 203.5 667t535.5 285q252 0 385 -137.5t133 -397.5q0 -429 -208.5 -705t-575.5 -276q-222 0 -347.5 156.5t-125.5 407.5zM328 565q0 -187 74.5 -298t215.5 -111q252 0 397.5 231.5t145.5 548.5q0 377 -323 377q-144 0 -260 -107.5t-183 -291t-67 -349.5z
" />
    <glyph glyph-name="Pi" unicode="&#x3a0;" horiz-adv-x="1303" 
d="M1339 1464l-258 -1464h-204l227 1284h-604l-228 -1284h-204l258 1464h1013z" />
    <glyph glyph-name="Rho" unicode="&#x3a1;" horiz-adv-x="1112" 
d="M362 563l-100 -563h-209l269 1464q175 21 292 21q553 0 553 -426q0 -242 -166.5 -380t-439.5 -138q-99 0 -199 22zM489 1284l-96 -541q53 -26 162 -26q183 0 291 84t108 237q0 271 -290 271q-82 0 -175 -25z" />
    <glyph glyph-name="Sigma" unicode="&#x3a3;" horiz-adv-x="1110" 
d="M1208 1464l-30 -180h-623l297 -506l-535 -598h670l-33 -180h-991v49l660 731l-371 637v47h956z" />
    <glyph glyph-name="Tau" unicode="&#x3a4;" horiz-adv-x="1190" 
d="M827 1284l-225 -1284h-205l226 1284h-465l30 180h1153l-30 -180h-484z" />
    <glyph glyph-name="Upsilon" unicode="&#x3a5;" horiz-adv-x="1167" 
d="M715 655l-117 -655h-201l117 655l-332 809h209l248 -624l463 624h225z" />
    <glyph glyph-name="Phi" unicode="&#x3a6;" horiz-adv-x="1569" 
d="M1044 1374q242 -16 376 -152t134 -356q0 -280 -195.5 -507.5t-539.5 -245.5l-26 -150h-199l27 150q-240 15 -376 156t-136 362q0 186 92.5 356.5t260.5 274t384 112.5l26 150h199zM819 1221q-244 -13 -376 -191t-132 -399q0 -160 88 -257t252 -106zM846 266
q238 13 372 196t134 402q0 332 -338 355z" />
    <glyph glyph-name="Chi" unicode="&#x3a7;" horiz-adv-x="1141" 
d="M817 0l-244 565l-415 -565h-232l566 770l-273 696l207 -2l201 -534l417 534h232l-567 -719l333 -745h-225z" />
    <glyph glyph-name="Psi" unicode="&#x3a8;" horiz-adv-x="1554" 
d="M1630 1464l-96 -552q-30 -172 -117 -290t-228.5 -186.5t-328.5 -83.5l-63 -356h-203l63 354q-234 24 -362.5 140t-128.5 303q0 49 12 116l98 555h203l-73 -409q-31 -171 -33 -193t-2 -49q0 -275 317 -299l168 950h199l-168 -950q176 13 295 120t149 281l96 549h203z" />
    <glyph glyph-name="Iotadieresis" unicode="&#x3aa;" horiz-adv-x="569" 
d="M76 0l258 1464h205l-260 -1464h-203zM692 1812q48 0 81.5 -32.5t33.5 -79.5q0 -48 -33.5 -80.5t-81.5 -32.5q-47 0 -78.5 32.5t-31.5 80.5t31.5 80t78.5 32zM219 1812q48 0 80.5 -32.5t32.5 -79.5q0 -48 -32.5 -80.5t-80.5 -32.5q-47 0 -80 32.5t-33 80.5q0 47 33 79.5
t80 32.5z" />
    <glyph glyph-name="Upsilondieresis" unicode="&#x3ab;" horiz-adv-x="1167" 
d="M715 655l-117 -655h-201l117 655l-332 809h209l248 -624l463 624h225zM1004 1812q47 0 80.5 -32.5t33.5 -79.5q0 -49 -33 -81t-81 -32t-79.5 32.5t-31.5 80.5t31.5 80t79.5 32zM530 1812q48 0 80.5 -32.5t32.5 -79.5q0 -48 -32.5 -80.5t-80.5 -32.5q-47 0 -79.5 32.5
t-32.5 80.5q0 47 32.5 79.5t79.5 32.5z" />
    <glyph glyph-name="alphatonos" unicode="&#x3ac;" horiz-adv-x="1120" 
d="M1090 1004l-131 -620q-13 -61 -13 -116q0 -130 62 -268h-195q-38 62 -51 141q-134 -161 -330 -161q-147 0 -240.5 91t-93.5 271q0 300 178 526t445 226q246 0 369 -90zM879 893q-31 45 -181 45q-157 0 -278 -168.5t-121 -421.5q0 -209 182 -209q82 0 153.5 43.5t97 88.5
t50.5 165zM1008 1618l-197 -334h-162l139 334h220z" />
    <glyph glyph-name="epsilontonos" unicode="&#x3ad;" horiz-adv-x="952" 
d="M956 1010l-75 -154q-128 82 -271 82q-104 0 -161.5 -49t-57.5 -127q0 -129 184 -129q81 0 144 4l-27 -154q-52 6 -143 6q-123 0 -198 -64.5t-75 -158.5q0 -133 187 -133q157 0 317 121l82 -154q-192 -120 -426 -120q-168 0 -265 69.5t-97 198.5q0 121 86.5 202t197.5 113
q-82 17 -126 70t-44 129q0 125 120.5 227.5t318.5 102.5t329 -82zM924 1618l-197 -334h-162l140 334h219z" />
    <glyph glyph-name="etatonos" unicode="&#x3ae;" horiz-adv-x="1133" 
d="M674 -328l172 951q14 82 14 139q0 170 -176 170q-54 0 -114.5 -27t-105 -62.5t-46.5 -45.5l-139 -797h-193l143 811q7 31 7 72q0 88 -21 172l182 37q27 -142 27 -160q122 160 350 160q289 0 289 -291q0 -57 -14 -137l-168 -940zM1018 1618l-197 -334h-162l140 334h219z
" />
    <glyph glyph-name="iotatonos" unicode="&#x3af;" horiz-adv-x="551" 
d="M492 1071q-118 -609 -130 -676t-12 -114q0 -159 76 -281h-213q-66 109 -66 246q0 77 28 219l118 606h199zM674 1618l-197 -334h-162l140 334h219z" />
    <glyph glyph-name="upsilondieresistonos" unicode="&#x3b0;" horiz-adv-x="1126" 
d="M1092 1071q4 -33 4 -129q0 -198 -57 -430t-201.5 -381t-352.5 -149q-171 0 -264.5 90t-93.5 258q0 73 29 206l114 535h199l-97 -450q-39 -182 -42.5 -218.5t-3.5 -68.5q0 -197 186 -197q123 0 216.5 121t131 341t37.5 353q0 91 -2 119h197zM864 1618l-147 -354h-111
l84 354h174zM1001 1518q48 0 81.5 -32t33.5 -79q0 -48 -33.5 -81.5t-81.5 -33.5q-46 0 -78 33.5t-32 81.5q0 47 31.5 79t78.5 32zM416 1518q47 0 79.5 -32t32.5 -79q0 -48 -32.5 -81.5t-79.5 -33.5q-48 0 -80.5 33.5t-32.5 81.5q0 47 32.5 79t80.5 32z" />
    <glyph glyph-name="alpha" unicode="&#x3b1;" horiz-adv-x="1120" 
d="M1090 1004l-131 -620q-13 -61 -13 -116q0 -130 62 -268h-195q-38 62 -51 141q-67 -81 -149.5 -121t-180.5 -40q-147 0 -240.5 91t-93.5 271q0 300 178 526t445 226q246 0 369 -90zM879 893q-31 45 -181 45q-157 0 -278 -168.5t-121 -421.5q0 -209 182 -209
q82 0 153.5 43.5t97 88.5t50.5 165z" />
    <glyph glyph-name="beta" unicode="&#x3b2;" horiz-adv-x="1155" 
d="M803 852q141 -29 220 -123t79 -221q0 -138 -68.5 -259.5t-207 -195t-324.5 -73.5q-96 0 -210.5 28t-154 51t-39.5 47q0 12 2 23l164 913q40 220 171.5 347t328.5 127q153 0 250.5 -82.5t97.5 -212.5q0 -131 -91 -230t-218 -139zM432 915h135q152 0 249 86t97 199
q0 75 -43 119.5t-120 44.5q-66 0 -122 -31t-97 -90t-56 -113.5t-43 -214.5zM307 211q16 -33 78.5 -55.5t134.5 -22.5q179 0 279 114t100 255q0 125 -84 195.5t-242 70.5h-167z" />
    <glyph glyph-name="gamma" unicode="&#x3b3;" horiz-adv-x="1077" 
d="M1167 1071q-253 -603 -600 -1044q-14 -135 -29.5 -194t-53.5 -115.5t-101 -94t-154 -49.5l-36 158q117 15 155.5 108t38.5 279q0 117 -17 260t-57 282.5t-81.5 198.5t-137.5 60l37 157q104 0 152 -14t92.5 -59.5t79.5 -139.5t68.5 -264t37.5 -324q283 474 393 795h213z
" />
    <glyph glyph-name="delta" unicode="&#x3b4;" horiz-adv-x="1120" 
d="M1188 1509l-27 -153h-395q62 -65 190.5 -266.5t128.5 -407.5q0 -283 -162 -492.5t-431 -209.5q-195 0 -299.5 111.5t-104.5 309.5q0 177 75 340t203 251.5t273 88.5q72 0 109 -10l-244 385v53h684zM887 682q0 154 -66 246q-55 18 -127 18q-188 0 -297.5 -160.5
t-109.5 -392.5q0 -258 225 -258q178 0 276.5 180.5t98.5 366.5z" />
    <glyph glyph-name="epsilon" unicode="&#x3b5;" horiz-adv-x="952" 
d="M956 1010l-75 -154q-128 82 -271 82q-104 0 -161.5 -49t-57.5 -127q0 -129 184 -129q81 0 144 4l-27 -154q-52 6 -143 6q-123 0 -198 -64.5t-75 -158.5q0 -133 187 -133q157 0 317 121l82 -154q-192 -120 -426 -120q-168 0 -265 69.5t-97 198.5q0 218 284 315
q-82 17 -126 70t-44 129q0 125 120.5 227.5t318.5 102.5t329 -82z" />
    <glyph glyph-name="zeta" unicode="&#x3b6;" horiz-adv-x="903" 
d="M1083 1456q-419 -413 -603.5 -674.5t-184.5 -443.5q0 -89 42 -131t159 -49q204 -14 276 -81t72 -161q0 -136 -102 -236t-273 -100q-77 0 -133 14l41 158q62 -22 117 -22q75 0 118 41.5t43 105.5q0 69 -62 94t-181 25q-157 0 -244.5 81t-87.5 230q0 270 227.5 556
t462.5 491h-381l31 155h663v-53z" />
    <glyph glyph-name="eta" unicode="&#x3b7;" horiz-adv-x="1133" 
d="M674 -328l172 951q14 82 14 139q0 170 -176 170q-54 0 -114.5 -27t-105 -62.5t-46.5 -45.5l-139 -797h-193l143 811q7 31 7 72q0 88 -21 172l182 37q27 -142 27 -160q122 160 350 160q289 0 289 -291q0 -57 -14 -137l-168 -940z" />
    <glyph glyph-name="theta" unicode="&#x3b8;" horiz-adv-x="1159" 
d="M784 1513q177 0 271 -125t94 -366q0 -214 -79 -483.5t-221 -414t-333 -144.5q-181 0 -275 124t-94 367q0 214 80.5 484t225 414t331.5 144zM944 854q17 121 17 199q0 164 -49.5 236.5t-147.5 72.5q-251 0 -373 -508h553zM920 702h-558q-24 -157 -24 -262q0 -307 197 -307
q267 0 385 569z" />
    <glyph glyph-name="iota" unicode="&#x3b9;" horiz-adv-x="551" 
d="M492 1071q-118 -609 -130 -676t-12 -114q0 -159 76 -281h-213q-66 109 -66 246q0 77 28 219l118 606h199z" />
    <glyph glyph-name="kappa" unicode="&#x3ba;" horiz-adv-x="1100" 
d="M524 477l-198 -166l-56 -311h-190l188 1071h191l-92 -526q501 433 591 553l125 -123q-150 -173 -413 -387l342 -588h-230z" />
    <glyph glyph-name="lambda" unicode="&#x3bb;" horiz-adv-x="1081" 
d="M993 0h-207l-112 858l-494 -858h-225l668 1096q-21 171 -59 214.5t-111 43.5q-48 0 -134 -35l-47 160q114 37 222 37q134 0 208.5 -73t102.5 -251z" />
    <glyph glyph-name="nu" unicode="&#x3bd;" horiz-adv-x="1026" 
d="M1112 1071q-211 -534 -649 -1091h-51l-306 1091h211l187 -774q261 398 393 774h215z" />
    <glyph glyph-name="xi" unicode="&#x3be;" horiz-adv-x="930" 
d="M1071 1456l-72 -160q-102 64 -237 64q-124 0 -204.5 -73.5t-80.5 -182.5q0 -96 73.5 -146.5t211.5 -50.5h145l-30 -157h-152q-174 0 -306 -131.5t-132 -278.5q0 -89 43 -131t166 -51q204 -14 276 -81t72 -161q0 -136 -102 -236t-273 -100q-77 0 -133 14l41 158
q62 -22 117 -22q75 0 118 41.5t43 105.5q0 69 -62 94t-181 25q-162 0 -251 83.5t-89 235.5q0 164 111.5 299.5t310.5 212.5q-106 20 -165 90.5t-59 172.5q0 170 139 298t369 128q155 0 293 -60z" />
    <glyph glyph-name="omicron" unicode="&#x3bf;" horiz-adv-x="1114" 
d="M88 393q0 290 169 494.5t425 204.5q193 0 297 -105t104 -301q0 -284 -162.5 -495t-435.5 -211q-191 0 -294 107t-103 306zM287 406q0 -271 227 -271q169 0 269 167.5t100 375.5q0 258 -228 258q-167 0 -267.5 -163.5t-100.5 -366.5z" />
    <glyph glyph-name="rho" unicode="&#x3c1;" horiz-adv-x="1182" 
d="M2 -420l152 864q68 376 223 512t354 136q194 0 302 -118t108 -319q0 -283 -163 -479t-421 -196q-176 0 -274 88l-86 -488h-195zM311 217q90 -80 224 -80q199 0 303 157.5t104 373.5q0 128 -58.5 198t-164.5 70q-69 0 -127.5 -32.5t-106.5 -94.5t-78.5 -146.5
t-51.5 -202.5z" />
    <glyph glyph-name="sigma1" unicode="&#x3c2;" horiz-adv-x="967" 
d="M1028 1004l-78 -158q-106 86 -235 86q-177 0 -293.5 -150t-116.5 -338q0 -234 275 -274q282 -43 282 -256q0 -85 -44 -162t-128.5 -124.5t-200.5 -47.5q-69 0 -124 14l38 158q63 -22 115 -22q75 0 116.5 43t41.5 108q0 115 -174.5 129.5t-289 117t-114.5 292.5
q0 249 170 460.5t461 211.5q179 0 299 -88z" />
    <glyph glyph-name="sigma" unicode="&#x3c3;" horiz-adv-x="1178" 
d="M1253 1071l-28 -158h-312q168 -152 168 -354q0 -232 -163 -405.5t-418 -173.5q-188 0 -297 114.5t-109 304.5q0 182 92.5 348.5t241.5 245t354 78.5h471zM883 557q0 232 -162 356q-209 -7 -319.5 -156.5t-110.5 -340.5q0 -128 60.5 -204.5t168.5 -76.5q157 0 260 129.5
t103 292.5z" />
    <glyph glyph-name="tau" unicode="&#x3c4;" horiz-adv-x="885" 
d="M961 1071l-29 -160h-320q-131 -605 -131 -657q0 -119 109 -119q70 0 147 35l-6 -166q-69 -24 -164 -24q-288 0 -288 249q0 52 19 144l116 538h-289l29 160h807z" />
    <glyph glyph-name="upsilon" unicode="&#x3c5;" horiz-adv-x="1126" 
d="M1092 1071q4 -33 4 -129q0 -198 -57 -430t-201.5 -381t-352.5 -149q-171 0 -264.5 90t-93.5 258q0 73 29 206l114 535h199l-97 -450q-39 -182 -42.5 -218.5t-3.5 -68.5q0 -197 186 -197q123 0 216.5 121t131 341t37.5 353q0 91 -2 119h197z" />
    <glyph glyph-name="phi" unicode="&#x3c6;" horiz-adv-x="1436" 
d="M578 133l83 463q33 181 57 249t72 127.5t117.5 90.5t151.5 31q153 0 247.5 -111.5t94.5 -314.5q0 -285 -177 -476t-483 -210l-69 -402h-193l70 402q-222 8 -337.5 121t-115.5 305q0 195 108.5 375.5t303.5 308.5l92 -129q-138 -96 -224.5 -247t-86.5 -304
q0 -255 289 -279zM766 131q210 20 326 164.5t116 380.5q0 124 -41.5 195t-122.5 71q-69 0 -112 -58t-63 -175z" />
    <glyph glyph-name="chi" unicode="&#x3c7;" horiz-adv-x="1053" 
d="M731 0l-192 414l-314 -414h-243l471 557l-265 514h222l176 -377l291 377h233l-442 -522l288 -549h-225z" />
    <glyph glyph-name="psi" unicode="&#x3c8;" horiz-adv-x="1516" 
d="M1497 1071l-103 -573q-26 -146 -81.5 -241.5t-138 -154.5t-188.5 -88.5t-198 -31.5l-69 -402h-193l70 402q-213 21 -326.5 125t-113.5 272q0 55 11 119l105 573h193l-78 -431q-33 -183 -35 -205.5t-2 -47.5q0 -227 275 -254l166 938h188l-166 -940q157 16 258.5 102.5
t129.5 250.5l102 587h194z" />
    <glyph glyph-name="omega" unicode="&#x3c9;" horiz-adv-x="1561" 
d="M1305 1102q208 -182 208 -500q0 -162 -61.5 -309.5t-174 -230t-255.5 -82.5q-205 0 -262 198q-117 -198 -326 -198q-159 0 -246.5 99t-87.5 271q0 224 112.5 421t303.5 331l119 -127q-165 -120 -253.5 -282t-88.5 -341q0 -217 162 -217q45 0 86 21.5t79 67.5
q64 75 73 121l32 159q31 148 41 264h197q-15 -56 -28.5 -114.5t-29.5 -146.5l-35 -188q0 -37 38.5 -110.5t131.5 -73.5q117 0 199 134t82 329q0 239 -156 391z" />
    <glyph glyph-name="iotadieresis" unicode="&#x3ca;" horiz-adv-x="551" 
d="M492 1071q-118 -609 -130 -676t-12 -114q0 -159 76 -281h-213q-66 109 -66 246q0 77 28 219l118 606h199zM668 1518q47 0 79.5 -32t32.5 -79q0 -48 -32 -81.5t-80 -33.5q-47 0 -80 33.5t-33 81.5q0 47 32.5 79t80.5 32zM195 1518q47 0 79.5 -32t32.5 -79
q0 -48 -32.5 -81.5t-79.5 -33.5q-49 0 -81 33.5t-32 81.5q0 47 32.5 79t80.5 32z" />
    <glyph glyph-name="upsilondieresis" unicode="&#x3cb;" horiz-adv-x="1126" 
d="M1092 1071q4 -33 4 -129q0 -198 -57 -430t-201.5 -381t-352.5 -149q-171 0 -264.5 90t-93.5 258q0 73 29 206l114 535h199l-97 -450q-39 -182 -42.5 -218.5t-3.5 -68.5q0 -197 186 -197q123 0 216.5 121t131 341t37.5 353q0 91 -2 119h197zM940 1518q48 0 80.5 -32
t32.5 -79q0 -48 -32.5 -81.5t-80.5 -33.5q-47 0 -80 33.5t-33 81.5q0 47 32.5 79t80.5 32zM467 1518q48 0 80.5 -32t32.5 -79q0 -48 -33 -81.5t-80 -33.5q-48 0 -80.5 33.5t-32.5 81.5q0 47 32.5 79t80.5 32z" />
    <glyph glyph-name="omicrontonos" unicode="&#x3cc;" horiz-adv-x="1114" 
d="M88 393q0 290 169 494.5t425 204.5q193 0 297 -105t104 -301q0 -284 -162.5 -495t-435.5 -211q-191 0 -294 107t-103 306zM287 406q0 -271 227 -271q169 0 269 167.5t100 375.5q0 258 -228 258q-167 0 -267.5 -163.5t-100.5 -366.5zM987 1618l-196 -334h-162l139 334h219
z" />
    <glyph glyph-name="upsilontonos" unicode="&#x3cd;" horiz-adv-x="1126" 
d="M1092 1071q4 -33 4 -129q0 -198 -57 -430t-201.5 -381t-352.5 -149q-171 0 -264.5 90t-93.5 258q0 73 29 206l114 535h199l-97 -450q-39 -182 -42.5 -218.5t-3.5 -68.5q0 -197 186 -197q123 0 216.5 121t131 341t37.5 353q0 91 -2 119h197zM958 1618l-196 -334h-162
l139 334h219z" />
    <glyph glyph-name="omegatonos" unicode="&#x3ce;" horiz-adv-x="1561" 
d="M1305 1102q208 -182 208 -500q0 -162 -61.5 -309.5t-174 -230t-255.5 -82.5q-205 0 -262 198q-118 -198 -326 -198q-159 0 -246.5 99t-87.5 271q0 224 112.5 421t303.5 331l119 -127q-165 -120 -253.5 -282t-88.5 -341q0 -217 162 -217q45 0 86 21.5t79 67.5
q64 75 73 121l32 159q31 148 41 264h197q-15 -56 -28.5 -114.5t-29.5 -146.5l-35 -188q0 -37 38.5 -110.5t131.5 -73.5q117 0 199 134t82 329q0 239 -156 391zM1192 1618l-197 -334h-164l140 334h221z" />
    <glyph glyph-name="afii10023" unicode="&#x401;" horiz-adv-x="1120" 
d="M504 1284l-72 -405h486l-31 -170h-484l-94 -529h664l-31 -180h-874l258 1464h886l-34 -180h-674zM1014 1812q49 0 81.5 -34t32.5 -76q0 -46 -34 -80.5t-80 -34.5q-42 0 -76.5 32.5t-34.5 82.5q0 43 31.5 76.5t79.5 33.5zM616 1812q48 0 80.5 -33t32.5 -77
q0 -48 -34 -81.5t-79 -33.5q-41 0 -76.5 32t-35.5 83q0 47 33.5 78.5t78.5 31.5z" />
    <glyph glyph-name="afii10051" unicode="&#x402;" horiz-adv-x="1477" 
d="M739 874q119 25 228 25q204 0 320 -95.5t116 -264.5q0 -108 -46.5 -244t-169 -220.5t-284.5 -84.5q-73 0 -129 8l31 166q47 -8 108 -8q98 0 166.5 57.5t92.5 152.5t24 154q0 104 -65.5 159.5t-188.5 55.5q-111 0 -233 -28l-125 -707h-203l227 1288h-405l30 176h1078
l-31 -176h-469z" />
    <glyph glyph-name="afii10052" unicode="&#x403;" horiz-adv-x="1063" 
d="M1180 1464l-31 -180h-647l-228 -1284h-206l258 1464h854zM1055 1919l-226 -334h-141l170 334h197z" />
    <glyph glyph-name="afii10053" unicode="&#x404;" horiz-adv-x="1159" 
d="M1182 1444l-56 -195q-84 66 -237 66q-177 0 -310 -128.5t-202 -326.5h518l-29 -168h-530q-8 -54 -8 -125q0 -413 342 -413q180 0 348 145l-17 -211q-121 -113 -380 -113q-242 0 -372 147.5t-130 407.5q0 391 213.5 676t568.5 285q171 0 281 -47z" />
    <glyph glyph-name="afii10054" unicode="&#x405;" horiz-adv-x="977" 
d="M70 47l61 193q49 -38 132 -60t161 -22q120 0 191 58t71 159q0 89 -58.5 155.5t-170.5 147.5q-147 107 -204.5 189t-57.5 200q0 197 124.5 310.5t325.5 113.5q223 0 299 -41l-57 -193q-33 25 -99 44.5t-118 19.5q-124 0 -200.5 -58.5t-76.5 -166.5q0 -70 42 -120.5
t183 -156.5q145 -105 207 -202t62 -230q0 -130 -56.5 -220t-167.5 -141t-262 -51q-87 0 -183.5 23t-147.5 49z" />
    <glyph glyph-name="afii10055" unicode="&#x406;" horiz-adv-x="569" 
d="M96 0l258 1464h205l-260 -1464h-203z" />
    <glyph glyph-name="afii10056" unicode="&#x407;" horiz-adv-x="569" 
d="M76 0l258 1464h205l-260 -1464h-203zM662 1812q45 0 78.5 -31.5t33.5 -78.5q0 -51 -35.5 -83t-76.5 -32q-42 0 -77.5 32t-35.5 83q0 42 31 76t82 34zM262 1812q48 0 80.5 -32.5t32.5 -77.5q0 -51 -35.5 -83t-77.5 -32q-44 0 -78 33.5t-34 81.5q0 44 32 77t80 33z" />
    <glyph glyph-name="afii10057" unicode="&#x408;" horiz-adv-x="956" 
d="M12 293h174q0 -133 136 -133q163 0 216 76t93 303l164 925h200l-161 -917q-57 -319 -168 -443t-375 -124q-131 0 -207 71.5t-76 194.5q0 15 4 47z" />
    <glyph glyph-name="afii10058" unicode="&#x409;" horiz-adv-x="2009" 
d="M1300 907q96 13 168 13q220 0 343.5 -98t123.5 -273q0 -140 -71 -271t-220.5 -204.5t-345.5 -73.5h-358l238 1290h-316q-59 -232 -149 -483t-190 -429.5t-185 -258.5t-169.5 -106.5t-207.5 -26.5l35 190q68 0 125 24.5t125.5 96.5t161 256t174 418t155.5 493h666z
M1167 164q85 -8 133 -8q191 0 308.5 101t117.5 271q0 232 -299 232q-86 0 -157 -15z" />
    <glyph glyph-name="afii10059" unicode="&#x40a;" horiz-adv-x="1874" 
d="M1165 907q95 13 168 13q219 0 343 -98t124 -273q0 -140 -71 -271t-221 -204.5t-345 -73.5h-358l125 709h-537l-125 -709h-200l258 1464h200l-102 -585h537l104 585h201zM1032 164q85 -8 133 -8q191 0 308.5 101t117.5 271q0 232 -299 232q-86 0 -157 -15z" />
    <glyph glyph-name="afii10060" unicode="&#x40b;" horiz-adv-x="1526" 
d="M739 874q119 25 228 25q202 0 317 -95t115 -263q0 -52 -6 -80l-82 -461h-203l65 364q23 132 23 160q0 102 -65.5 156.5t-188.5 54.5q-111 0 -233 -28l-125 -707h-203l227 1288h-405l30 176h1074l-31 -176h-465z" />
    <glyph glyph-name="afii10061" unicode="&#x40c;" horiz-adv-x="1253" 
d="M1323 1468l-31 -172q-7 2 -43 2t-61.5 -27.5t-59.5 -117.5q-116 -316 -417 -383q145 -56 215.5 -163.5t70.5 -295.5q0 -90 16.5 -116.5t57.5 -26.5q24 0 47 4l-33 -178q-16 -4 -71 -4q-115 0 -165 59t-50 209q0 223 -83.5 326.5t-303.5 103.5h-19l-121 -688h-204
l258 1464h204l-106 -606h12q208 0 327.5 86.5t190.5 288.5q47 129 111 184.5t192 55.5q35 0 66 -5zM1096 1919l-226 -334h-141l170 334h197z" />
    <glyph glyph-name="afii10062" unicode="&#x40e;" horiz-adv-x="1188" 
d="M1341 1464q-200 -477 -370.5 -770.5t-308 -439t-276.5 -207t-318 -61.5l38 194q269 0 449 232l-362 1052h217l288 -884q236 371 422 884h221zM1192 1880q-77 -299 -385 -299q-139 0 -221 72t-82 192q0 27 8 76l172 -14q-8 -38 -8 -60q0 -60 42 -95.5t116 -35.5
q168 0 200 209z" />
    <glyph glyph-name="afii10145" unicode="&#x40f;" horiz-adv-x="1307" 
d="M1343 1464l-258 -1464h-411l-66 -373h-194l65 373h-411l258 1464h204l-225 -1284h608l226 1284h204z" />
    <glyph glyph-name="afii10017" unicode="&#x410;" horiz-adv-x="1251" 
d="M920 0l-46 309h-526l-172 -309h-225l858 1485h53l289 -1485h-231zM762 1081l-334 -624h424z" />
    <glyph glyph-name="afii10018" unicode="&#x411;" horiz-adv-x="1167" 
d="M1155 1464l-31 -174h-626l-72 -407q85 12 195 12q216 0 343.5 -100t127.5 -273q0 -227 -161.5 -374.5t-463.5 -147.5h-399l258 1464h829zM301 170q131 -10 162 -10q196 0 305 95t109 253q0 227 -295 227q-113 0 -187 -14z" />
    <glyph glyph-name="afii10019" unicode="&#x412;" horiz-adv-x="1167" 
d="M68 0l260 1464q155 23 282 23q510 0 510 -346q0 -117 -74 -208t-202 -126q246 -78 246 -326q0 -231 -173.5 -362t-543.5 -131q-114 0 -305 12zM500 1309l-70 -414q87 -6 150 -6q335 0 335 258q0 172 -260 172q-43 0 -155 -10zM397 727l-98 -557q80 -12 143 -12
q225 0 332 90.5t107 224.5q0 135 -84.5 198.5t-259.5 63.5q-78 0 -140 -8z" />
    <glyph glyph-name="afii10020" unicode="&#x413;" horiz-adv-x="1063" 
d="M1180 1464l-31 -180h-647l-228 -1284h-206l258 1464h854z" />
    <glyph glyph-name="afii10021" unicode="&#x414;" horiz-adv-x="1401" 
d="M1395 1464l-232 -1296h156l-102 -588h-187l74 420h-973l-74 -420h-186l102 588h84q171 187 294.5 378.5t208.5 380t212 537.5h623zM1169 1296h-276q-247 -712 -612 -1128h686z" />
    <glyph glyph-name="afii10022" unicode="&#x415;" horiz-adv-x="1120" 
d="M504 1284l-72 -405h486l-31 -170h-484l-94 -529h664l-31 -180h-874l258 1464h886l-34 -180h-674z" />
    <glyph glyph-name="afii10024" unicode="&#x416;" horiz-adv-x="1819" 
d="M1894 1468l-30 -172q-8 2 -43 2q-39 0 -63.5 -25t-57.5 -116q-120 -325 -389 -389q262 -115 262 -459q0 -90 13.5 -115.5t51.5 -25.5q23 0 45 4l-30 -178q-15 -4 -62 -4q-117 0 -164 61t-47 207q0 239 -81 336.5t-246 97.5l-123 -692h-197l123 692q-177 0 -293.5 -99.5
t-191.5 -324.5q-52 -152 -116 -215t-185 -63q-59 0 -74 4l33 178q22 -4 41 -4q36 0 62.5 29.5t62.5 128.5q126 353 417 450q-250 84 -250 389q0 82 -15 107.5t-54 25.5t-47 -2l33 172q31 5 61 5q116 0 162.5 -63t46.5 -202q0 -180 78.5 -266t257.5 -86l110 608h197
l-111 -608q325 0 443 348q47 143 111.5 206t189.5 63q37 0 69 -5z" />
    <glyph glyph-name="afii10025" unicode="&#x417;" horiz-adv-x="1061" 
d="M250 1425q213 66 409 66q178 0 284 -84.5t106 -232.5q0 -152 -101.5 -254.5t-210.5 -133.5q117 -32 179.5 -111.5t62.5 -189.5q0 -122 -68.5 -244t-206 -194t-319.5 -72q-214 0 -371 78l64 191q144 -97 338 -97q152 0 254 90t102 236q0 113 -84 174.5t-237 61.5
q-45 0 -117 -4l31 167q76 -4 131 -4q161 0 260.5 82t99.5 203q0 82 -61 128t-164 46q-158 0 -328 -84z" />
    <glyph glyph-name="afii10026" unicode="&#x418;" horiz-adv-x="1374" 
d="M1411 1489l-262 -1489h-205l178 1022l-1001 -1047h-53l262 1489h205l-179 -1022l1002 1047h53z" />
    <glyph glyph-name="afii10027" unicode="&#x419;" horiz-adv-x="1374" 
d="M1411 1489l-262 -1489h-205l178 1022l-1001 -1047h-53l262 1489h205l-179 -1022l1002 1047h53zM1288 1880q-77 -299 -385 -299q-139 0 -221 72t-82 192q0 27 8 76l172 -14q-8 -38 -8 -60q0 -60 42.5 -95.5t115.5 -35.5q168 0 200 209z" />
    <glyph glyph-name="afii10028" unicode="&#x41a;" horiz-adv-x="1247" 
d="M1323 1468l-31 -172q-7 2 -43 2t-61.5 -27.5t-59.5 -117.5q-116 -316 -417 -383q145 -56 215.5 -163.5t70.5 -295.5q0 -90 16.5 -116.5t57.5 -26.5q24 0 47 4l-33 -178q-16 -4 -71 -4q-115 0 -165 59t-50 209q0 223 -83.5 326.5t-303.5 103.5h-19l-121 -688h-204
l258 1464h204l-106 -606h12q208 0 327.5 86.5t190.5 288.5q47 129 111 184.5t192 55.5q35 0 66 -5z" />
    <glyph glyph-name="afii10029" unicode="&#x41b;" horiz-adv-x="1382" 
d="M1419 1464l-260 -1464h-203l232 1288h-322q-57 -223 -145.5 -469t-188.5 -428.5t-186.5 -266t-173 -111t-211.5 -27.5l35 190q68 0 124 24.5t125 97t162 256.5t176.5 421.5t155.5 488.5h680z" />
    <glyph glyph-name="afii10030" unicode="&#x41c;" horiz-adv-x="1540" 
d="M1217 0l-21 905l-487 -925h-50l-159 940l-334 -920h-193l523 1464h104l164 -1028l518 1028h94l41 -1464h-200z" />
    <glyph glyph-name="afii10031" unicode="&#x41d;" horiz-adv-x="1339" 
d="M913 0l125 709h-641l-125 -709h-204l258 1464h206l-104 -585h639l104 585h205l-260 -1464h-203z" />
    <glyph glyph-name="afii10032" unicode="&#x41e;" horiz-adv-x="1382" 
d="M115 539q0 382 203.5 667t535.5 285q252 0 385 -137.5t133 -397.5q0 -429 -208.5 -705t-575.5 -276q-222 0 -347.5 156.5t-125.5 407.5zM328 565q0 -187 74.5 -298t215.5 -111q252 0 397.5 231.5t145.5 548.5q0 377 -323 377q-144 0 -260 -107.5t-183 -291t-67 -349.5z
" />
    <glyph glyph-name="afii10033" unicode="&#x41f;" horiz-adv-x="1303" 
d="M1339 1464l-258 -1464h-204l227 1284h-604l-228 -1284h-204l258 1464h1013z" />
    <glyph glyph-name="afii10034" unicode="&#x420;" horiz-adv-x="1149" 
d="M377 563l-101 -563h-208l268 1464q176 21 293 21q553 0 553 -426q0 -242 -167 -380t-440 -138q-99 0 -198 22zM504 1284l-96 -541q53 -26 161 -26q183 0 291.5 84t108.5 237q0 271 -291 271q-82 0 -174 -25z" />
    <glyph glyph-name="afii10035" unicode="&#x421;" horiz-adv-x="1155" 
d="M1182 1444l-56 -197q-84 66 -237 66q-235 0 -397 -236.5t-162 -509.5q0 -411 344 -411q176 0 344 143l-17 -211q-121 -113 -380 -113q-242 0 -372 147.5t-130 407.5q0 391 213.5 676t568.5 285q171 0 281 -47z" />
    <glyph glyph-name="afii10036" unicode="&#x422;" horiz-adv-x="1268" 
d="M872 1284l-225 -1284h-205l226 1284h-465l30 180h1153l-30 -180h-484z" />
    <glyph glyph-name="afii10037" unicode="&#x423;" horiz-adv-x="1188" 
d="M1341 1464q-200 -477 -370.5 -770.5t-308 -439t-276.5 -207t-318 -61.5l38 194q269 0 449 232l-362 1052h217l288 -884q236 371 422 884h221z" />
    <glyph glyph-name="afii10038" unicode="&#x424;" horiz-adv-x="1534" 
d="M1022 1325q229 -10 361.5 -138t132.5 -329q0 -268 -192 -476t-507 -224l-33 -178h-200l32 178q-229 10 -361 139.5t-132 331.5q0 266 194.5 473t503.5 223l31 170h201zM842 311q217 11 346 173.5t129 361.5q0 144 -84 231.5t-240 93.5zM797 1171q-217 -10 -346 -168.5
t-129 -361.5q0 -144 83.5 -233.5t239.5 -96.5z" />
    <glyph glyph-name="afii10039" unicode="&#x425;" horiz-adv-x="1178" 
d="M844 0l-234 580l-426 -580h-235l583 764l-292 700h215l215 -530l401 530h229l-555 -719l322 -745h-223z" />
    <glyph glyph-name="afii10040" unicode="&#x426;" horiz-adv-x="1321" 
d="M1315 1464l-228 -1286h156l-106 -598h-187l74 420h-956l258 1464h204l-227 -1286h580l227 1286h205z" />
    <glyph glyph-name="afii10041" unicode="&#x427;" horiz-adv-x="1221" 
d="M1257 1464l-258 -1464h-202l104 590q-148 -33 -270 -33q-199 0 -309.5 94.5t-110.5 268.5q0 56 13 129l75 415h207l-57 -327q-21 -122 -23 -145t-2 -46q0 -223 244 -223q119 0 262 37l125 704h202z" />
    <glyph glyph-name="afii10042" unicode="&#x428;" horiz-adv-x="1825" 
d="M1862 1464l-258 -1464h-1536l258 1464h196l-227 -1294h473l227 1294h197l-227 -1294h473l227 1294h197z" />
    <glyph glyph-name="afii10043" unicode="&#x429;" horiz-adv-x="1860" 
d="M1853 1464l-227 -1288h152l-107 -596h-186l74 420h-1491l258 1464h196l-227 -1294h469l227 1294h197l-227 -1294h469l227 1294h196z" />
    <glyph glyph-name="afii10044" unicode="&#x42a;" horiz-adv-x="1520" 
d="M784 907q90 13 191 13q222 0 346.5 -98t124.5 -273q0 -140 -71 -271t-220.5 -204.5t-347.5 -73.5h-383l227 1290h-448l30 174h652zM657 168q92 -8 150 -8q191 0 308.5 99t117.5 263q0 115 -77.5 175.5t-223.5 60.5q-102 0 -176 -15z" />
    <glyph glyph-name="afii10045" unicode="&#x42b;" horiz-adv-x="1583" 
d="M424 907q95 13 176 13q219 0 344 -99t125 -274q0 -140 -72 -271t-221.5 -203.5t-343.5 -72.5h-364l258 1464h198zM295 164q107 -8 139 -8q193 0 309.5 101.5t116.5 268.5q0 234 -301 234q-93 0 -166 -15zM1620 1464l-258 -1464h-197l258 1464h197z" />
    <glyph glyph-name="afii10046" unicode="&#x42c;" horiz-adv-x="1180" 
d="M428 905q105 15 207 15q222 0 346.5 -98t124.5 -273q0 -140 -71 -271t-220.5 -204.5t-347.5 -73.5h-399l258 1464h202zM301 168q114 -8 166 -8q194 0 309 100t115 264q0 232 -299 232q-107 0 -193 -17z" />
    <glyph glyph-name="afii10047" unicode="&#x42d;" horiz-adv-x="1163" 
d="M260 1423q215 68 379 68q247 0 376.5 -144t129.5 -415q0 -408 -211 -682.5t-565 -274.5q-183 0 -344 70l59 197q132 -90 303 -90q191 0 332 144t196 398h-534l33 162h526q2 21 2 68q0 393 -344 393q-120 0 -285 -84z" />
    <glyph glyph-name="afii10048" unicode="&#x42e;" horiz-adv-x="1823" 
d="M666 879q77 293 246 452.5t405 159.5q229 0 360 -145.5t131 -387.5q0 -405 -194.5 -694t-542.5 -289q-214 0 -334.5 152.5t-120.5 409.5q0 72 15 174h-240l-125 -711h-198l258 1464h198l-102 -585h244zM1098 150q239 0 372.5 239.5t133.5 548.5q0 176 -79 277.5
t-229 101.5q-214 0 -345.5 -229t-131.5 -525q0 -413 279 -413z" />
    <glyph glyph-name="afii10049" unicode="&#x42f;" horiz-adv-x="1225" 
d="M1262 1460l-258 -1460h-203l112 635l-86 2q-369 0 -497 -383q-52 -156 -115 -210t-178 -54q-46 0 -62 4l33 178q21 -4 35 -4q31 0 51 23t51 112q119 338 383 397q-282 70 -282 316q0 186 167.5 325.5t487.5 139.5q125 0 361 -21zM1030 1296q-100 13 -188 13
q-180 0 -282.5 -80.5t-102.5 -210.5q0 -67 37.5 -115.5t111 -75.5t175.5 -28l161 -2z" />
    <glyph glyph-name="afii10065" unicode="&#x430;" horiz-adv-x="1104" 
d="M1079 1004l-130 -620q-13 -61 -13 -116q0 -130 61 -268h-194q-38 62 -51 141q-67 -81 -149.5 -121t-180.5 -40q-147 0 -240.5 91t-93.5 271q0 300 177.5 526t445.5 226q246 0 368 -90zM868 893q-30 45 -180 45q-157 0 -278 -168.5t-121 -421.5q0 -209 182 -209
q81 0 153 43.5t97.5 88.5t50.5 165z" />
    <glyph glyph-name="afii10066" unicode="&#x431;" horiz-adv-x="1184" 
d="M1233 1368q-64 -31 -137 -43t-217 -20q-210 -12 -318.5 -105t-177.5 -303q68 62 166 97.5t190 35.5q191 0 297.5 -107.5t106.5 -295.5q0 -253 -165 -450t-446 -197q-197 0 -307 122t-110 336q0 247 109 526.5t272.5 392t423.5 128.5q182 10 268 51zM561 135
q158 0 271.5 141t113.5 328q0 275 -268 275q-50 0 -113 -16.5t-136 -54.5t-87.5 -88t-24.5 -130t-10 -152q0 -144 68 -223.5t186 -79.5z" />
    <glyph glyph-name="afii10067" unicode="&#x432;" horiz-adv-x="1104" 
d="M1047 825q0 -98 -70 -174t-189 -102q108 -25 165 -86t57 -146q0 -141 -131.5 -240.5t-389.5 -99.5q-98 0 -217 26.5t-156.5 47t-37.5 43.5q0 12 49 272q61 316 74 359q31 101 83.5 173t119.5 116t142.5 64t158.5 20q158 0 250 -76.5t92 -196.5zM350 610h187
q327 0 327 199q0 63 -43.5 104t-130.5 41q-284 0 -340 -344zM274 182q17 -25 88 -43t154 -18q136 0 220.5 51.5t84.5 146.5q0 71 -57 115.5t-176 44.5h-260z" />
    <glyph glyph-name="afii10068" unicode="&#x433;" horiz-adv-x="930" 
d="M207 1012q192 80 373 80q169 0 258.5 -71t89.5 -196q0 -97 -58 -168t-241 -139l-208 -78.5t-121 -72t-36 -97.5q0 -131 174 -131q183 0 361 115l-23 -201q-192 -73 -362 -73q-171 0 -265 75t-94 209q0 216 299 322q243 86 306 122.5t63 106.5q0 52 -43 84.5t-121 32.5
q-119 0 -274 -88z" />
    <glyph glyph-name="afii10069" unicode="&#x434;" horiz-adv-x="1198" 
d="M377 1511q216 21 313 21q502 0 502 -481q0 -210 -81.5 -497t-238.5 -430.5t-358 -143.5t-315.5 110.5t-114.5 294.5q0 251 165.5 449t424.5 198q181 0 321 -123q9 67 9 129q0 172 -81.5 254t-263.5 82q-104 0 -256 -41zM977 778q-135 103 -315 103q-147 0 -264 -145.5
t-117 -336.5q0 -124 63.5 -194t181.5 -70q158 0 275 167t176 476z" />
    <glyph glyph-name="afii10070" unicode="&#x435;" horiz-adv-x="1051" 
d="M287 508q-2 -11 -2 -59q0 -159 78.5 -234.5t189.5 -75.5q124 0 256 88l-23 -192q-142 -55 -282 -55q-414 0 -414 458q0 274 177 464t440 190q153 0 248.5 -68t95.5 -197q0 -181 -148 -277.5t-362 -96.5q-153 0 -254 55zM319 645q87 -37 191 -37q166 0 259 52t93 141
q0 58 -45 94.5t-127 36.5q-123 0 -219 -74t-152 -213z" />
    <glyph glyph-name="afii10072" unicode="&#x436;" horiz-adv-x="1509" 
d="M1534 1077l-33 -164q-6 2 -39 2q-31 0 -45 -16t-26 -49q-96 -245 -308 -291q201 -80 215 -334q3 -35 13.5 -52t46.5 -17q12 0 33 4l-33 -166q-30 -4 -53 -4q-183 0 -183 203q0 294 -256 294l-84 -487h-184l86 487q-142 0 -222 -66.5t-143 -240.5q-35 -98 -93.5 -144
t-155.5 -46q-21 0 -58 4l31 164q6 -2 37 -2q33 0 50.5 23.5t31.5 60.5q108 277 317 329q-186 59 -196 275q-3 37 -13.5 54t-44.5 17q-35 0 -41 -2l33 164q29 4 51 4q185 0 185 -192q0 -128 62 -187t196 -59l75 428h183l-76 -428q132 0 211.5 61.5t130.5 204.5
q33 91 83.5 131.5t156.5 40.5q22 0 59 -4z" />
    <glyph glyph-name="afii10073" unicode="&#x437;" horiz-adv-x="926" 
d="M195 1032q176 60 370 60q142 0 236 -70t94 -186q0 -203 -244 -275q187 -59 187 -227q0 -156 -128 -255t-354 -99q-206 0 -356 86l100 182q129 -113 293 -113q113 0 179.5 56t66.5 147q0 151 -209 151q-71 0 -123 -6l29 152q18 -2 121 -2q114 0 176.5 50t62.5 128
q0 58 -43 91.5t-121 33.5q-138 0 -290 -82z" />
    <glyph glyph-name="afii10074" unicode="&#x438;" horiz-adv-x="1165" 
d="M457 1071l-128 -701q-3 -17 -3 -63q0 -168 172 -168q105 0 205.5 80t122.5 203l118 649h201l-197 -1071h-198l26 152q-110 -172 -387 -172q-124 0 -195 74.5t-71 209.5q0 47 8 93l127 714h199z" />
    <glyph glyph-name="afii10075" unicode="&#x439;" horiz-adv-x="1165" 
d="M457 1071l-128 -701q-3 -17 -3 -63q0 -168 172 -168q105 0 205.5 80t122.5 203l118 649h201l-197 -1071h-198l26 152q-110 -172 -387 -172q-124 0 -195 74.5t-71 209.5q0 47 8 93l127 714h199zM1100 1518q-74 -293 -377 -293q-136 0 -216.5 70.5t-80.5 187.5q0 27 8 76
l168 -15q-8 -34 -8 -59q0 -59 42 -93t114 -34q164 0 196 205z" />
    <glyph glyph-name="afii10076" unicode="&#x43a;" horiz-adv-x="1071" 
d="M1096 1077l-31 -164q-10 2 -39 2q-24 0 -40.5 -11.5t-33.5 -53.5q-95 -244 -321 -291q207 -81 221 -332q3 -45 16.5 -58t42.5 -13q17 0 39 4l-32 -166q-32 -4 -64 -4q-186 0 -186 203q0 143 -76 218.5t-219 75.5h-17l-86 -487h-194l188 1071h195l-76 -428h18
q151 0 242 64t141 202q34 92 84 132t156 40q26 0 72 -4z" />
    <glyph glyph-name="afii10077" unicode="&#x43b;" horiz-adv-x="1190" 
d="M1171 1071l-190 -1071h-193l162 911h-301q-69 -313 -134 -481t-143.5 -267.5t-168.5 -138t-205 -38.5h-14l36 178q175 0 282.5 221t201.5 686h667z" />
    <glyph glyph-name="afii10078" unicode="&#x43c;" horiz-adv-x="1507" 
d="M1174 0l6 641l-461 -659h-49l-211 663l-258 -645h-199l459 1092h51l248 -781l545 781h53l14 -1092h-198z" />
    <glyph glyph-name="afii10079" unicode="&#x43d;" horiz-adv-x="1155" 
d="M1137 1071l-191 -1071h-194l86 483h-482l-86 -483h-194l188 1071h195l-76 -430h481l76 430h197z" />
    <glyph glyph-name="afii10080" unicode="&#x43e;" horiz-adv-x="1108" 
d="M86 393q0 176 71 338t209.5 261.5t313.5 99.5q193 0 297 -105t104 -301q0 -284 -162.5 -495t-435.5 -211q-191 0 -294 107t-103 306zM285 406q0 -271 227 -271q169 0 269 167.5t100 375.5q0 258 -228 258q-167 0 -267.5 -163.5t-100.5 -366.5z" />
    <glyph glyph-name="afii10081" unicode="&#x43f;" horiz-adv-x="1137" 
d="M729 0l114 626q13 75 13 136q0 170 -176 170q-53 0 -112.5 -25t-107 -63t-48.5 -47l-140 -797h-192l143 811q6 31 6 68q0 93 -20 176l182 37q27 -142 27 -160q123 160 352 160q291 0 291 -297q0 -49 -10 -103l-119 -692h-203z" />
    <glyph glyph-name="afii10082" unicode="&#x440;" horiz-adv-x="1145" 
d="M272 53l-84 -479h-188l209 1178q14 78 14 153t-14 146l190 34q7 -12 19 -137q43 56 130.5 96.5t168.5 40.5q399 0 399 -397q0 -212 -83 -374.5t-215.5 -250.5t-313.5 -88q-53 0 -132 23t-100 55zM301 211q16 -30 71.5 -53t104.5 -23q208 0 322 139.5t114 389.5
q0 262 -266 262q-27 0 -60 -10q-32 -9 -68 -27q-22 -11 -45 -26q-19 -12 -34 -25t-27 -26q-9 -10 -32 -141z" />
    <glyph glyph-name="afii10083" unicode="&#x441;" horiz-adv-x="934" 
d="M928 1036l-35 -162q-74 58 -193 58q-182 0 -296.5 -145t-114.5 -359q0 -80 28.5 -140.5t86 -102.5t126.5 -42q146 0 279 88l-23 -192q-131 -59 -286 -59q-195 0 -302.5 111t-107.5 304q0 307 168.5 502t427.5 195q153 0 242 -56z" />
    <glyph glyph-name="afii10084" unicode="&#x442;" horiz-adv-x="1722" 
d="M1315 0l92 517q35 195 35 239q0 176 -176 176q-52 0 -104.5 -25.5t-127.5 -113.5l-141 -793h-195l136 762q2 10 2 31q0 139 -189 139q-70 0 -150 -61.5t-83 -79.5l-140 -791h-194l139 780q6 37 6 94q0 105 -20 181l184 35q17 -72 21 -140q43 68 134.5 105t190.5 37
q228 0 297 -144q45 63 137.5 103.5t186.5 40.5q291 0 291 -279q0 -51 -9 -96l-129 -717h-194z" />
    <glyph glyph-name="afii10085" unicode="&#x443;" horiz-adv-x="1034" 
d="M72 -420v184q138 0 228 35.5t157 196.5q-150 8 -195 276l-133 799h211l113 -776q16 -123 84 -123l387 899h215l-527 -1169q-84 -186 -199 -254t-341 -68z" />
    <glyph glyph-name="afii10086" unicode="&#x444;" horiz-adv-x="1540" 
d="M963 1026q108 61 217 61q154 0 237.5 -102t83.5 -289q0 -271 -136.5 -489.5t-358.5 -218.5q-100 0 -193 57q-30 -200 -46 -253.5t-60.5 -106.5t-115.5 -87t-173 -49l-19 119q63 9 109 43t69 77.5t33 112.5l21 144q-107 -59 -238 -59q-135 0 -219 94.5t-84 296.5
q0 274 136.5 491t381.5 217q96 0 172 -55q33 204 48.5 258.5t58 109t115 89.5t182.5 51l18 -119q-73 -12 -119 -48t-66.5 -81t-31.5 -116zM834 186q74 -57 147 -57q169 0 252.5 185t83.5 378q0 254 -187 254q-75 0 -190 -63zM760 895q-69 49 -150 49q-159 0 -247.5 -173
t-88.5 -394q0 -250 193 -250q70 0 188 70z" />
    <glyph glyph-name="afii10087" unicode="&#x445;" horiz-adv-x="1053" 
d="M731 0l-194 414l-312 -414h-243l467 557l-267 514h221l179 -377l288 377h234l-440 -522l292 -549h-225z" />
    <glyph glyph-name="afii10088" unicode="&#x446;" horiz-adv-x="1208" 
d="M1128 127l-94 -477h-180l72 340q-120 0 -140 147q-142 -157 -364 -157q-145 0 -222 74.5t-77 215.5q0 53 10 106l125 695h201l-87 -483q-33 -189 -36.5 -223.5t-3.5 -63.5q0 -78 47 -120t135 -42q63 0 142 40t130 100l140 792h194l-139 -788q-6 -31 -6 -54
q0 -53 34.5 -77.5t118.5 -24.5z" />
    <glyph glyph-name="afii10089" unicode="&#x447;" horiz-adv-x="1116" 
d="M1096 1071l-189 -1071h-192l78 430q-140 -43 -269 -43q-157 0 -250.5 76t-93.5 231q0 49 12 113l50 264h194q-47 -264 -50 -285t-3 -57q0 -182 190 -182q134 0 246 41l84 483h193z" />
    <glyph glyph-name="afii10090" unicode="&#x448;" horiz-adv-x="1710" 
d="M1690 1071l-164 -924q-12 -62 -19 -147h-194l14 121q-135 -141 -326 -141q-195 0 -249 159q-145 -159 -340 -159q-134 0 -211.5 72.5t-77.5 201.5q0 55 8 100l129 717h195l-95 -533q-36 -203 -36 -239q0 -160 165 -160q86 0 164.5 63t81.5 81l142 788h194l-135 -762
q-2 -10 -2 -30q0 -140 145 -140q60 0 135 37.5t140 106.5l141 788h195z" />
    <glyph glyph-name="afii10091" unicode="&#x449;" horiz-adv-x="1769" 
d="M1602 -350h-187l72 340q-56 0 -94 38t-47 109q-146 -157 -349 -157q-190 0 -245 159q-136 -159 -336 -159q-132 0 -208.5 72.5t-76.5 201.5q0 55 8 100l129 717h195l-95 -533q-36 -203 -36 -239q0 -160 162 -160q84 0 161 63t80 81l142 788h192l-135 -762q-2 -10 -2 -30
q0 -140 143 -140q133 0 268 140l142 792h194l-139 -788q-6 -28 -6 -54q0 -56 37 -79t119 -23z" />
    <glyph glyph-name="afii10092" unicode="&#x44a;" horiz-adv-x="1321" 
d="M629 645q132 43 252 43q168 0 264 -87.5t96 -235.5q0 -179 -134.5 -282t-367.5 -103q-103 0 -221 26.5t-190 67.5l161 837h-352l31 160h545zM541 188q16 -22 81.5 -38.5t139.5 -16.5q126 0 207.5 59t81.5 162q0 85 -56.5 131.5t-160.5 46.5q-107 0 -234 -38z" />
    <glyph glyph-name="afii10093" unicode="&#x44b;" horiz-adv-x="1509" 
d="M383 645q131 43 250 43q167 0 261.5 -87t94.5 -236q0 -182 -134 -283.5t-363 -101.5q-104 0 -221 26.5t-189 67.5l192 997h193zM293 188q16 -22 82 -38.5t139 -16.5q123 0 204 57.5t81 163.5q0 178 -213 178q-107 0 -234 -38zM1491 1071l-188 -1071h-193l188 1071h193z
" />
    <glyph glyph-name="afii10094" unicode="&#x44c;" horiz-adv-x="1098" 
d="M385 641q146 47 268 47q172 0 268.5 -86.5t96.5 -236.5q0 -176 -134 -280.5t-378 -104.5q-108 0 -229 26.5t-193 67.5l192 997h193zM297 188q16 -22 83.5 -38.5t143.5 -16.5q124 0 210.5 56t86.5 165q0 178 -215 178q-103 0 -250 -43z" />
    <glyph glyph-name="afii10095" unicode="&#x44d;" horiz-adv-x="938" 
d="M211 1051q153 41 291 41q195 0 298 -108.5t103 -313.5q0 -315 -155.5 -502.5t-428.5 -187.5q-146 0 -311 53l72 180q114 -76 254 -76q281 0 358 344h-432l27 148h422v33q0 274 -228 274q-94 0 -219 -55z" />
    <glyph glyph-name="afii10096" unicode="&#x44e;" horiz-adv-x="1501" 
d="M584 639q60 203 197.5 328t320.5 125q173 0 269.5 -102t96.5 -281q0 -312 -152 -520.5t-407 -208.5q-175 0 -268.5 100.5t-93.5 292.5q0 37 8 112h-207l-86 -485h-186l188 1071h187l-76 -432h209zM928 133q103 0 187 88t123.5 230t39.5 251q0 236 -193 236
q-143 0 -249.5 -169.5t-106.5 -393.5q0 -242 199 -242z" />
    <glyph glyph-name="afii10097" unicode="&#x44f;" horiz-adv-x="1081" 
d="M416 494q-211 41 -211 223q0 152 133.5 260t374.5 108q107 0 202.5 -14.5t115.5 -25.5t20 -29q0 -5 -2 -17l-177 -999h-184l78 434h-72q-159 0 -247.5 -62t-133.5 -200q-59 -182 -243 -182q-32 0 -72 4l31 162q10 -2 39 -2q47 0 71 69q40 112 104.5 175t172.5 96z
M850 911q-40 27 -182 27q-120 0 -195.5 -55t-75.5 -146q0 -51 27 -88t79.5 -57t127.5 -21l157 -2z" />
    <glyph glyph-name="afii10071" unicode="&#x451;" horiz-adv-x="1051" 
d="M287 508q-2 -11 -2 -59q0 -159 78.5 -234.5t189.5 -75.5q124 0 256 88l-23 -192q-142 -55 -282 -55q-414 0 -414 458q0 274 177 464t440 190q153 0 248.5 -68t95.5 -197q0 -181 -148 -277.5t-362 -96.5q-153 0 -254 55zM319 645q87 -37 191 -37q166 0 259 52t93 141
q0 58 -45 94.5t-127 36.5q-123 0 -219 -74t-152 -213zM920 1468q47 0 79.5 -31t32.5 -79q0 -53 -35.5 -83t-76.5 -30q-48 0 -80.5 32.5t-32.5 80.5q0 46 31 78t82 32zM520 1468q49 0 81 -31.5t32 -78.5q0 -53 -35.5 -83t-77.5 -30q-45 0 -78.5 31.5t-33.5 81.5q0 48 32.5 79
t79.5 31z" />
    <glyph glyph-name="afii10099" unicode="&#x452;" horiz-adv-x="1128" 
d="M432 901q46 58 134 96.5t188 38.5q142 0 220.5 -79t78.5 -226q0 -51 -39 -267l-68 -383q-28 -158 -55.5 -222.5t-71 -117t-104.5 -89t-146.5 -56.5t-195.5 -20l10 168q118 0 185 26t103.5 72.5t54.5 114.5l69 381q59 331 59 356q0 187 -180 187q-87 0 -176.5 -59.5
t-91.5 -76.5l-134 -745h-194l207 1190h-144l25 139h145l31 180h188l-28 -180h379l-25 -139h-379z" />
    <glyph glyph-name="afii10100" unicode="&#x453;" horiz-adv-x="930" 
d="M207 1012q192 80 373 80q169 0 258.5 -71t89.5 -196q0 -97 -58 -168t-241 -139l-208 -78.5t-121 -72t-36 -97.5q0 -131 174 -131q183 0 361 115l-23 -201q-192 -73 -362 -73q-171 0 -265 75t-94 209q0 216 299 322q243 86 306 122.5t63 106.5q0 52 -43 84.5t-121 32.5
q-119 0 -274 -88zM901 1559l-225 -334h-139l168 334h196z" />
    <glyph glyph-name="afii10101" unicode="&#x454;" horiz-adv-x="934" 
d="M928 1042l-35 -163q-92 57 -213 57q-274 0 -369 -307h418l-27 -148h-415l-2 -67q0 -134 62 -205.5t179 -71.5q146 0 283 90l-23 -190q-126 -57 -286 -57q-202 0 -306 113.5t-104 301.5q0 285 152.5 491t447.5 206q134 0 238 -50z" />
    <glyph glyph-name="afii10102" unicode="&#x455;" horiz-adv-x="844" 
d="M16 63l101 181q35 -38 109 -71.5t126 -33.5q91 0 149 50t58 128q0 76 -106 134l-151 84q-87 49 -118.5 104.5t-31.5 122.5q0 149 115.5 239.5t285.5 90.5q118 0 281 -74l-84 -176q-100 90 -211 90q-73 0 -129 -39t-56 -102q0 -39 25 -71.5t82 -64.5l127 -69
q68 -38 89.5 -54t42.5 -45.5t31.5 -63t10.5 -71.5q0 -183 -131.5 -277.5t-311.5 -94.5q-166 0 -303 83z" />
    <glyph glyph-name="afii10103" unicode="&#x456;" horiz-adv-x="594" 
d="M469 1491q54 0 93.5 -38t39.5 -95t-38.5 -94t-94.5 -37q-59 0 -96 38.5t-37 92.5t38 93.5t95 39.5zM162 0l162 911h-142l35 156h328l-189 -1067h-194z" />
    <glyph glyph-name="afii10104" unicode="&#x457;" horiz-adv-x="594" 
d="M162 0l162 911h-142l35 156h328l-189 -1067h-194zM625 1468q47 0 79.5 -31t32.5 -79q0 -50 -33.5 -81.5t-78.5 -31.5q-48 0 -80.5 32.5t-32.5 80.5q0 47 31.5 78.5t81.5 31.5zM225 1468q49 0 81 -31.5t32 -78.5q0 -50 -34 -81.5t-79 -31.5t-78.5 31.5t-33.5 81.5
q0 48 32.5 79t79.5 31z" />
    <glyph glyph-name="afii10105" unicode="&#x458;" horiz-adv-x="616" 
d="M496 1491q57 0 95 -40.5t38 -92.5q0 -54 -37 -92.5t-96 -38.5q-58 0 -96 38t-38 93q0 54 38.5 93.5t95.5 39.5zM-225 -416l8 168q345 0 393 252l172 907h-141l35 160h327l-192 -1055q-43 -232 -190 -332t-412 -100z" />
    <glyph glyph-name="afii10106" unicode="&#x459;" horiz-adv-x="1772" 
d="M1092 645q130 43 245 43q167 0 261 -86.5t94 -236.5q0 -184 -134 -284.5t-360 -100.5q-103 0 -218 26t-187 68l157 837h-301q-69 -313 -134 -481t-143.5 -267.5t-168.5 -138t-205 -38.5h-14l36 178q175 0 282.5 221t201.5 686h667zM1004 186q16 -23 80 -39t137 -16
q122 0 202 58.5t80 164.5q0 86 -54 134.5t-159 48.5q-102 0 -227 -39z" />
    <glyph glyph-name="afii10107" unicode="&#x45a;" horiz-adv-x="1651" 
d="M969 645q130 43 248 43q166 0 260 -86.5t94 -236.5q0 -184 -134 -284.5t-362 -100.5q-102 0 -215 26t-186 68l76 418h-394l-88 -492h-192l188 1071h193l-74 -422h397l82 422h189zM885 186q16 -23 78 -39t135 -16q124 0 204 58t80 165q0 86 -54 134.5t-159 48.5
q-103 0 -229 -39z" />
    <glyph glyph-name="afii10108" unicode="&#x45b;" horiz-adv-x="1128" 
d="M432 901q46 58 134 96.5t188 38.5q142 0 220.5 -79t78.5 -226q0 -51 -8 -96l-113 -635h-197l77 433q36 203 39 223.5t3 37.5q0 187 -180 187q-87 0 -176.5 -59.5t-91.5 -76.5l-134 -745h-194l207 1190h-144l25 139h145l31 180h188l-28 -180h379l-25 -139h-379z" />
    <glyph glyph-name="afii10109" unicode="&#x45c;" horiz-adv-x="1071" 
d="M1096 1077l-31 -164q-10 2 -39 2q-24 0 -40.5 -11.5t-33.5 -53.5q-95 -244 -321 -291q207 -81 221 -332q3 -45 16.5 -58t42.5 -13q17 0 39 4l-32 -166q-32 -4 -64 -4q-186 0 -186 203q0 143 -76 218.5t-219 75.5h-17l-86 -487h-194l188 1071h195l-76 -428h18
q151 0 242 64t141 202q34 92 84 132t156 40q26 0 72 -4zM969 1559l-226 -334h-141l170 334h197z" />
    <glyph glyph-name="afii10110" unicode="&#x45e;" horiz-adv-x="1034" 
d="M72 -420v184q138 0 228 35.5t157 196.5q-150 8 -195 276l-133 799h211l113 -776q16 -123 84 -123l387 899h215l-527 -1169q-84 -186 -199 -254t-341 -68zM993 1518q-74 -293 -377 -293q-135 0 -216 70.5t-81 187.5q0 27 9 76l168 -15q-9 -34 -9 -59q0 -58 42 -92.5
t114 -34.5q165 0 197 205z" />
    <glyph glyph-name="afii10193" unicode="&#x45f;" horiz-adv-x="1161" 
d="M1141 1071l-164 -924q-12 -66 -19 -147h-196l14 117q-91 -90 -209 -121l-69 -358h-183l84 342q-133 5 -204.5 80.5t-71.5 203.5q0 53 11 113l126 694h199l-126 -701q-3 -17 -3 -63q0 -168 182 -168q154 0 291 142l141 790h197z" />
    <glyph glyph-name="afii10050" unicode="&#x490;" horiz-adv-x="1063" 
d="M1235 1782l-86 -498h-647l-228 -1284h-206l258 1464h684l55 318h170z" />
    <glyph glyph-name="afii10098" unicode="&#x491;" horiz-adv-x="899" 
d="M1001 1339l-75 -428h-496l-160 -911h-194l188 1071h529l47 268h161z" />
    <glyph glyph-name="Amacron" unicode="&#x100;" horiz-adv-x="1251" 
d="M936 0l-46 309h-525l-173 -309h-224l857 1485h53l290 -1485h-232zM779 1082l-335 -626h425zM1266 1726l-25 -141h-738l25 141h738z" />
    <glyph glyph-name="amacron" unicode="&#x101;" horiz-adv-x="1076" 
d="M1052 1004l-131 -623q-8 -38 -8 -92q0 -156 49 -289h-194q-16 32 -34 108q-47 -57 -140 -92.5t-197 -35.5q-158 0 -246.5 93.5t-88.5 268.5q0 294 173.5 521.5t446.5 227.5q258 0 370 -87zM842 893q-27 43 -182 43q-158 0 -278 -168t-120 -420q0 -213 190 -213
q99 0 186 102.5t121 262.5zM1099 1366l-25 -141h-738l25 141h738z" />
    <glyph glyph-name="Ccircumflex" unicode="&#x108;" horiz-adv-x="1225" 
d="M1204 1443l-55 -195q-84 64 -237 64q-236 0 -397.5 -235.5t-161.5 -508.5q0 -413 343 -413q177 0 344 145l-16 -212q-123 -113 -381 -113q-240 0 -371 148t-131 408q0 402 218.5 680.5t564.5 278.5q174 0 280 -47zM1020 1582l-130 192l-211 -192h-172l361 341h107
l242 -341h-197z" />
    <glyph glyph-name="ccircumflex" unicode="&#x109;" horiz-adv-x="942" 
d="M928 1037l-35 -163q-72 57 -193 57q-184 0 -297.5 -145.5t-113.5 -357.5q0 -130 73.5 -207.5t167.5 -77.5q145 0 278 89l-21 -194q-131 -58 -287 -58q-198 0 -304 113.5t-106 301.5q0 306 168 501t428 195q154 0 242 -54zM810 1222l-130 192l-211 -192h-172l361 341h107
l242 -341h-197z" />
    <glyph glyph-name="Cdot" unicode="&#x10a;" horiz-adv-x="1225" 
d="M1204 1443l-55 -195q-84 64 -237 64q-236 0 -397.5 -235.5t-161.5 -508.5q0 -413 343 -413q177 0 344 145l-16 -212q-123 -113 -381 -113q-240 0 -371 148t-131 408q0 402 218.5 680.5t564.5 278.5q174 0 280 -47zM898 1820q48 0 83 -34.5t35 -82.5q0 -49 -35 -83.5
t-83 -34.5q-49 0 -83 34.5t-34 83.5t34 83t83 34z" />
    <glyph glyph-name="cdot" unicode="&#x10b;" horiz-adv-x="942" 
d="M928 1037l-35 -163q-72 57 -193 57q-184 0 -297.5 -145.5t-113.5 -357.5q0 -130 73.5 -207.5t167.5 -77.5q145 0 278 89l-21 -194q-131 -58 -287 -58q-198 0 -304 113.5t-106 301.5q0 306 168 501t428 195q154 0 242 -54zM686 1460q48 0 83 -34.5t35 -82.5
q0 -49 -35 -83.5t-83 -34.5q-49 0 -83 34.5t-34 83.5t34 83t83 34z" />
    <glyph glyph-name="Emacron" unicode="&#x112;" horiz-adv-x="1097" 
d="M484 1285l-72 -407h484l-30 -170h-484l-93 -528h664l-32 -180h-874l259 1465h885l-33 -180h-674zM1156 1726l-25 -141h-738l25 141h738z" />
    <glyph glyph-name="emacron" unicode="&#x113;" horiz-adv-x="1100" 
d="M311 506q-9 -48 -9 -92q0 -132 74 -203t207 -71q118 0 238 87l-20 -194q-160 -53 -283 -53q-414 0 -414 464q0 273 174 460t438 187q159 0 254 -68t95 -194q0 -175 -148 -276t-363 -101q-144 0 -243 54zM344 644q76 -34 179 -34q156 0 255 50.5t99 147.5q0 123 -170 123
q-259 0 -363 -287zM1121 1366l-25 -141h-738l25 141h738z" />
    <glyph glyph-name="Ebreve" unicode="&#x114;" horiz-adv-x="1097" 
d="M484 1285l-72 -407h484l-30 -170h-484l-93 -528h664l-32 -180h-874l259 1465h885l-33 -180h-674zM1140 1910q-57 -325 -392 -325q-278 0 -278 252q0 35 7 73h141q-7 -29 -7 -54q0 -117 165 -117q191 0 221 171h143z" />
    <glyph glyph-name="ebreve" unicode="&#x115;" horiz-adv-x="1100" 
d="M311 506q-9 -48 -9 -92q0 -132 74 -203t207 -71q118 0 238 87l-20 -194q-160 -53 -283 -53q-414 0 -414 464q0 273 174 460t438 187q159 0 254 -68t95 -194q0 -175 -148 -276t-363 -101q-144 0 -243 54zM344 644q76 -34 179 -34q156 0 255 50.5t99 147.5q0 123 -170 123
q-259 0 -363 -287zM1087 1550q-57 -325 -392 -325q-278 0 -278 252q0 35 7 73h141q-7 -29 -7 -54q0 -117 165 -117q191 0 221 171h143z" />
    <glyph glyph-name="Edot" unicode="&#x116;" horiz-adv-x="1097" 
d="M484 1285l-72 -407h484l-30 -170h-484l-93 -528h664l-32 -180h-874l259 1465h885l-33 -180h-674zM749 1820q48 0 83 -34.5t35 -82.5q0 -49 -35 -83.5t-83 -34.5q-49 0 -83 34.5t-34 83.5t34 83t83 34z" />
    <glyph glyph-name="edot" unicode="&#x117;" horiz-adv-x="1100" 
d="M311 506q-9 -48 -9 -92q0 -132 74 -203t207 -71q118 0 238 87l-20 -194q-160 -53 -283 -53q-414 0 -414 464q0 273 174 460t438 187q159 0 254 -68t95 -194q0 -175 -148 -276t-363 -101q-144 0 -243 54zM344 644q76 -34 179 -34q156 0 255 50.5t99 147.5q0 123 -170 123
q-259 0 -363 -287zM718 1460q48 0 83 -34.5t35 -82.5q0 -49 -35 -83.5t-83 -34.5q-49 0 -83 34.5t-34 83.5t34 83t83 34z" />
    <glyph glyph-name="Gcircumflex" unicode="&#x11c;" horiz-adv-x="1385" 
d="M1276 1406l-60 -191q-128 95 -278 95q-269 0 -441 -208t-172 -524q0 -423 399 -423q160 0 276 96l61 343h-203l30 170h403l-113 -638q-207 -151 -527 -151q-539 0 -539 564q0 421 239 686t625 265q216 0 300 -84zM1050 1582l-130 192l-211 -192h-172l361 341h107
l242 -341h-197z" />
    <glyph glyph-name="gcircumflex" unicode="&#x11d;" horiz-adv-x="1028" 
d="M-13 -300l90 140q183 -92 303 -92q132 0 220 49t88 137q0 44 -29.5 72.5t-100.5 40.5l-176 30q-107 27 -107 109q0 66 171 133l-34 -1q-117 0 -205.5 87.5t-88.5 210.5q0 210 135 342.5t345 132.5q151 0 238 -72l90 102l105 -108l-99 -103q29 -41 29 -129
q0 -172 -87 -295t-227.5 -172.5t-140.5 -92.5q0 -35 38 -35q14 0 41.5 4.5t41.5 4.5q250 0 250 -226q0 -177 -157.5 -283t-374.5 -106q-220 0 -358 120zM584 938q-115 0 -193.5 -89.5t-78.5 -210.5q0 -218 165 -218q112 0 198 109.5t86 232.5q0 81 -48 128.5t-129 47.5z
M750 1222l-130 192l-211 -192h-172l361 341h107l242 -341h-197z" />
    <glyph glyph-name="Gdot" unicode="&#x120;" horiz-adv-x="1385" 
d="M1276 1406l-60 -191q-128 95 -278 95q-269 0 -441 -208t-172 -524q0 -423 399 -423q160 0 276 96l61 343h-203l30 170h403l-113 -638q-207 -151 -527 -151q-539 0 -539 564q0 421 239 686t625 265q216 0 300 -84zM898 1820q48 0 83 -34.5t35 -82.5q0 -49 -35 -83.5
t-83 -34.5q-49 0 -83 34.5t-34 83.5t34 83t83 34z" />
    <glyph glyph-name="gdot" unicode="&#x121;" horiz-adv-x="1028" 
d="M-13 -300l90 140q183 -92 303 -92q132 0 220 49t88 137q0 44 -29.5 72.5t-100.5 40.5l-176 30q-107 27 -107 109q0 66 171 133l-34 -1q-117 0 -205.5 87.5t-88.5 210.5q0 210 135 342.5t345 132.5q151 0 238 -72l90 102l105 -108l-99 -103q29 -41 29 -129
q0 -172 -87 -295t-227.5 -172.5t-140.5 -92.5q0 -35 38 -35q14 0 41.5 4.5t41.5 4.5q250 0 250 -226q0 -177 -157.5 -283t-374.5 -106q-220 0 -358 120zM584 938q-115 0 -193.5 -89.5t-78.5 -210.5q0 -218 165 -218q112 0 198 109.5t86 232.5q0 81 -48 128.5t-129 47.5z
M618 1460q48 0 83 -34.5t35 -82.5q0 -49 -35 -83.5t-83 -34.5q-49 0 -83 34.5t-34 83.5t34 83t83 34z" />
    <glyph glyph-name="Gcedilla" unicode="&#x122;" horiz-adv-x="1385" 
d="M1276 1406l-60 -191q-128 95 -278 95q-269 0 -441 -208t-172 -524q0 -423 399 -423q160 0 276 96l61 343h-203l30 170h403l-113 -638q-207 -151 -527 -151q-539 0 -539 564q0 421 239 686t625 265q216 0 300 -84zM481 -455l-8 99q88 0 147 32t59 90t-79 58l21 120
q87 0 133.5 -44t46.5 -117q0 -112 -91.5 -175t-228.5 -63z" />
    <glyph glyph-name="gcedilla" unicode="&#x123;" horiz-adv-x="1028" 
d="M-13 -300l90 140q183 -92 303 -92q132 0 220 49t88 137q0 44 -29.5 72.5t-100.5 40.5l-176 30q-107 27 -107 109q0 66 171 133l-34 -1q-117 0 -205.5 87.5t-88.5 210.5q0 210 135 342.5t345 132.5q151 0 238 -72l90 102l105 -108l-99 -103q29 -41 29 -129
q0 -172 -87 -295t-227.5 -172.5t-140.5 -92.5q0 -35 38 -35q14 0 41.5 4.5t41.5 4.5q250 0 250 -226q0 -177 -157.5 -283t-374.5 -106q-220 0 -358 120zM584 938q-115 0 -193.5 -89.5t-78.5 -210.5q0 -218 165 -218q112 0 198 109.5t86 232.5q0 81 -48 128.5t-129 47.5z
M661 1658l54 -57q-62 -61 -70 -82.5t-8 -39.5q0 -41 42 -75t42 -81q0 -98 -106 -98q-108 0 -108 145q0 168 154 288z" />
    <glyph glyph-name="Hcircumflex" unicode="&#x124;" horiz-adv-x="1340" 
d="M913 0l125 708h-640l-125 -708h-206l259 1465h206l-104 -587h640l104 587h204l-259 -1465h-204zM1021 1582l-130 192l-211 -192h-172l361 341h107l242 -341h-197z" />
    <glyph glyph-name="hcircumflex" unicode="&#x125;" horiz-adv-x="1141" 
d="M736 0l119 673q7 40 7 73q0 185 -180 185q-69 0 -145.5 -40.5t-123.5 -94.5l-141 -796h-194l261 1510h189l-88 -557q49 59 140.5 98.5t181.5 39.5q142 0 220.5 -81t78.5 -228q0 -51 -10 -109l-119 -673h-196zM910 1582l-130 192l-211 -192h-172l361 341h107l242 -341
h-197z" />
    <glyph glyph-name="Hbar" unicode="&#x126;" horiz-adv-x="1397" 
d="M1522 1239l-25 -139h-156l-194 -1100h-203l123 694h-645l-123 -694h-205l195 1100h-152l25 139h151l39 225h207l-41 -225h643l41 225h205l-41 -225h156zM1137 1100h-643l-41 -236h643z" />
    <glyph glyph-name="hbar" unicode="&#x127;" horiz-adv-x="1133" 
d="M1053 731q0 -51 -11 -108l-110 -623h-197l111 623q8 46 8 71q0 187 -180 187q-72 0 -156 -47q-75 -43 -112 -89l-134 -745h-194l207 1190h-144l25 139h145l31 180h188l-28 -180h379l-25 -139h-379l-45 -289q48 60 139 98q87 37 183 37q144 0 221.5 -80t77.5 -225z" />
    <glyph glyph-name="Itilde" unicode="&#x128;" horiz-adv-x="570" 
d="M75 0l259 1465h204l-259 -1465h-204zM807 1792q-90 -207 -229 -207q-60 0 -130 38.5t-101 38.5q-71 0 -122 -77h-91q30 84 91.5 145.5t129.5 61.5q76 0 143 -38.5t99 -38.5q82 0 122 77h88z" />
    <glyph glyph-name="itilde" unicode="&#x129;" horiz-adv-x="628" 
d="M138 0l162 911h-142l35 157h327l-189 -1068h-193zM744 1432q-90 -207 -229 -207q-60 0 -130 38.5t-101 38.5q-71 0 -122 -77h-91q30 84 91.5 145.5t129.5 61.5q76 0 143 -38.5t99 -38.5q82 0 122 77h88z" />
    <glyph glyph-name="Imacron" unicode="&#x12a;" horiz-adv-x="570" 
d="M75 0l259 1465h204l-259 -1465h-204zM856 1726l-25 -141h-738l25 141h738z" />
    <glyph glyph-name="imacron" unicode="&#x12b;" horiz-adv-x="628" 
d="M138 0l162 911h-142l35 157h327l-189 -1068h-193zM791 1366l-25 -141h-738l25 141h738z" />
    <glyph glyph-name="Ibreve" unicode="&#x12c;" horiz-adv-x="570" 
d="M75 0l259 1465h204l-259 -1465h-204zM842 1910q-57 -325 -392 -325q-278 0 -278 252q0 35 7 73h141q-7 -29 -7 -54q0 -117 165 -117q191 0 221 171h143z" />
    <glyph glyph-name="ibreve" unicode="&#x12d;" horiz-adv-x="628" 
d="M138 0l162 911h-142l35 157h327l-189 -1068h-193zM797 1550q-57 -325 -392 -325q-278 0 -278 252q0 35 7 73h141q-7 -29 -7 -54q0 -117 165 -117q191 0 221 171h143z" />
    <glyph glyph-name="Iogonek" unicode="&#x12e;" horiz-adv-x="570" 
d="M569 1465l-259 -1465q-123 -56 -123 -150q0 -77 96 -77q66 0 139 38v-149q-103 -35 -169 -35q-98 0 -163 51q-70 56 -70 151q0 122 95 218l250 1418h204z" />
    <glyph glyph-name="iogonek" unicode="&#x12f;" horiz-adv-x="628" 
d="M578 1357q0 -57 -38 -94t-95 -37q-56 0 -94.5 37.5t-38.5 93.5t39 95t94 39q56 0 94.5 -38.5t38.5 -95.5zM520 1068l-189 -1068q-121 -56 -121 -150q0 -77 96 -77q66 0 139 38v-149q-103 -35 -169 -35q-98 0 -163 51q-70 56 -70 151q0 128 105 228l152 854h-142l35 157
h327z" />
    <glyph glyph-name="IJ" unicode="&#x132;" horiz-adv-x="1489" 
d="M75 0l259 1465h204l-259 -1465h-204zM498 293h175q0 -133 135 -133q129 0 196 54.5t114 324.5l163 926h200l-161 -918q-55 -316 -166 -441.5t-376 -125.5q-130 0 -206.5 70.5t-76.5 194.5q0 23 3 48z" />
    <glyph glyph-name="ij" unicode="&#x133;" horiz-adv-x="1200" 
d="M445 1491q55 0 94 -38.5t39 -94.5q0 -55 -39 -93.5t-94 -38.5t-94 38.5t-39 93.5q0 56 39 94.5t94 38.5zM138 0l162 911h-142l35 157h327l-189 -1068h-193zM1030 1491q55 0 94 -39t39 -94t-39 -93.5t-94 -38.5t-94 38.5t-39 93.5t39 94t94 39zM310 -415l8 168
q345 0 393 252l172 906h-141l34 160h329l-193 -1055q-42 -228 -186 -329.5t-416 -101.5z" />
    <glyph glyph-name="Jcircumflex" unicode="&#x134;" horiz-adv-x="976" 
d="M-13 293h175q0 -133 135 -133q129 0 196 54.5t114 324.5l163 926h200l-161 -918q-55 -316 -166 -441.5t-376 -125.5q-130 0 -206.5 70.5t-76.5 194.5q0 23 3 48zM950 1582l-130 192l-211 -192h-172l361 341h107l242 -341h-197z" />
    <glyph glyph-name="jcircumflex" unicode="&#x135;" horiz-adv-x="751" 
d="M-139 -415l8 168q345 0 393 252l172 906h-141l34 160h329l-193 -1055q-42 -228 -186 -329.5t-416 -101.5zM662 1222l-130 192l-211 -192h-172l361 341h107l242 -341h-197z" />
    <glyph glyph-name="Kcedilla" unicode="&#x136;" horiz-adv-x="1179" 
d="M869 0l-284 674l-244 -277l-70 -397h-202l258 1465h202l-132 -758l666 758h233l-550 -635l354 -830h-231zM321 -455l-8 99q88 0 147 32t59 90t-79 58l21 120q87 0 133.5 -44t46.5 -117q0 -112 -91.5 -175t-228.5 -63z" />
    <glyph glyph-name="kcedilla" unicode="&#x137;" horiz-adv-x="1033" 
d="M441 473l-75 -65l-70 -408h-190l253 1510h185l-137 -878q376 352 463 474l128 -115q-161 -179 -409 -414l404 -577h-224zM301 -455l-8 99q88 0 147 32t59 90t-79 58l21 120q87 0 133.5 -44t46.5 -117q0 -112 -91.5 -175t-228.5 -63z" />
    <glyph glyph-name="kgreenlandic" unicode="&#x138;" horiz-adv-x="1100" 
d="M524 477l-198 -166l-56 -311h-190l188 1071h191l-92 -526q501 433 591 553l125 -123q-150 -173 -413 -387l342 -588h-230z" />
    <glyph glyph-name="Lcedilla" unicode="&#x13b;" horiz-adv-x="1037" 
d="M84 0l259 1465h204l-227 -1285h662l-32 -180h-866zM287 -455l-8 99q88 0 147 32t59 90t-79 58l21 120q87 0 133.5 -44t46.5 -117q0 -112 -91.5 -175t-228.5 -63z" />
    <glyph glyph-name="lcedilla" unicode="&#x13c;" horiz-adv-x="656" 
d="M489 120l-22 -140q-321 0 -321 238q0 72 50 321l192 971h198l-183 -912q-57 -284 -57 -356q0 -122 143 -122zM101 -455l-8 99q88 0 147 32t59 90t-79 58l21 120q87 0 133.5 -44t46.5 -117q0 -112 -91.5 -175t-228.5 -63z" />
    <glyph glyph-name="Ncedilla" unicode="&#x145;" horiz-adv-x="1307" 
d="M1003 -20l-572 1040l-172 -1020h-200l259 1465h80l560 -998l169 998h198l-262 -1485h-60zM341 -455l-8 99q88 0 147 32t59 90t-79 58l21 120q87 0 133.5 -44t46.5 -117q0 -112 -91.5 -175t-228.5 -63z" />
    <glyph glyph-name="ncedilla" unicode="&#x146;" horiz-adv-x="1119" 
d="M728 0l112 623q15 83 15 138q0 170 -177 170q-68 0 -145.5 -40t-123.5 -95l-139 -796h-192l144 812q5 28 5 66q0 102 -21 177l184 36q27 -146 26 -159q122 159 352 159q290 0 290 -296q0 -59 -13 -132l-115 -663h-202zM261 -455l-8 99q88 0 147 32t59 90t-79 58l21 120
q87 0 133.5 -44t46.5 -117q0 -112 -91.5 -175t-228.5 -63z" />
    <glyph glyph-name="napostrophe" unicode="&#x149;" horiz-adv-x="1239" 
d="M67 1092l-40 68q82 54 93 77.5t11 46.5q0 26 -27.5 60.5t-27.5 62.5q0 103 97 103q111 0 111 -115q0 -91 -61 -174.5t-156 -128.5zM848 0l112 623q15 83 15 138q0 170 -177 170q-68 0 -145.5 -40t-123.5 -95l-139 -796h-192l144 812q5 28 5 66q0 102 -21 177l184 36
q27 -146 26 -159q122 159 352 159q290 0 290 -296q0 -59 -13 -132l-115 -663h-202z" />
    <glyph glyph-name="Eng" unicode="&#x14a;" horiz-adv-x="1335" 
d="M1290 1083q0 -79 -18 -184l-78 -442q-43 -246 -145 -361q-105 -116 -277 -116q-146 0 -235 79l94 144q63 -51 133 -51q106 0 164 106q37 69 61 207l70 393q20 116 20 201q0 111 -37 162q-66 90 -215 90q-185 0 -356 -174l-201 -1137h-204l258 1464h120l50 -135
q174 162 401 162q189 0 291 -102q104 -105 104 -306z" />
    <glyph glyph-name="eng" unicode="&#x14b;" horiz-adv-x="1119" 
d="M1058 795q0 -51 -15 -131l-113 -664q-58 -324 -298 -397q-87 -27 -201 -27l31 168q67 0 120 18q109 38 146 238l113 623q14 79 14 139q-1 170 -173 170q-71 0 -149.5 -41t-122.5 -94l-140 -797h-192l143 811q6 35 6 68q0 94 -20 176l182 37q27 -142 27 -160
q123 160 352 160q290 0 290 -297z" />
    <glyph glyph-name="Omacron" unicode="&#x14c;" horiz-adv-x="1380" 
d="M114 538q0 386 206 669.5t535 283.5q253 0 385.5 -138t132.5 -397q0 -427 -208.5 -704t-577.5 -277q-221 0 -347 156.5t-126 406.5zM327 566q0 -190 75.5 -300.5t216.5 -110.5q249 0 395.5 231t146.5 549q0 377 -324 377q-224 0 -367 -244.5t-143 -501.5zM1271 1726
l-25 -141h-738l25 141h738z" />
    <glyph glyph-name="omacron" unicode="&#x14d;" horiz-adv-x="1099" 
d="M73 394q0 287 168 492t427 205q195 0 298 -105.5t103 -299.5q0 -154 -61.5 -320t-201 -276t-334.5 -110q-193 0 -296 108.5t-103 305.5zM273 406q0 -271 227 -271q169 0 268.5 164t99.5 379q0 258 -227 258q-115 0 -202.5 -82t-126.5 -210t-39 -238zM1081 1366l-25 -141
h-738l25 141h738z" />
    <glyph glyph-name="Obreve" unicode="&#x14e;" horiz-adv-x="1380" 
d="M114 538q0 386 206 669.5t535 283.5q253 0 385.5 -138t132.5 -397q0 -427 -208.5 -704t-577.5 -277q-221 0 -347 156.5t-126 406.5zM327 566q0 -190 75.5 -300.5t216.5 -110.5q249 0 395.5 231t146.5 549q0 377 -324 377q-224 0 -367 -244.5t-143 -501.5zM1287 1910
q-57 -325 -392 -325q-278 0 -278 252q0 35 7 73h141q-7 -29 -7 -54q0 -117 165 -117q191 0 221 171h143z" />
    <glyph glyph-name="obreve" unicode="&#x14f;" horiz-adv-x="1099" 
d="M73 394q0 287 168 492t427 205q195 0 298 -105.5t103 -299.5q0 -154 -61.5 -320t-201 -276t-334.5 -110q-193 0 -296 108.5t-103 305.5zM273 406q0 -271 227 -271q169 0 268.5 164t99.5 379q0 258 -227 258q-115 0 -202.5 -82t-126.5 -210t-39 -238zM1067 1550
q-57 -325 -392 -325q-278 0 -278 252q0 35 7 73h141q-7 -29 -7 -54q0 -117 165 -117q191 0 221 171h143z" />
    <glyph glyph-name="Rcedilla" unicode="&#x156;" horiz-adv-x="1192" 
d="M834 0l-230 629q-77 0 -211 10l-112 -639h-210l258 1465q41 1 161.5 8t197.5 7q232 0 357.5 -83t125.5 -238q0 -183 -108.5 -320.5t-272.5 -174.5l273 -664h-229zM507 1285l-84 -476q74 -10 139 -10q178 0 286.5 74t108.5 203q0 119 -76 169t-254 50q-38 0 -120 -10z
M287 -455l-8 99q88 0 147 32t59 90t-79 58l21 120q87 0 133.5 -44t46.5 -117q0 -112 -91.5 -175t-228.5 -63z" />
    <glyph glyph-name="rcedilla" unicode="&#x157;" horiz-adv-x="853" 
d="M835 883q-60 48 -140 48q-101 0 -193 -93.5t-115 -223.5l-109 -614h-190l189 1071h190l-30 -171q138 191 343 191q35 0 109 -14zM1 -455l-8 99q88 0 147 32t59 90t-79 58l21 120q87 0 133.5 -44t46.5 -117q0 -112 -91.5 -175t-228.5 -63z" />
    <glyph glyph-name="Scircumflex" unicode="&#x15c;" horiz-adv-x="985" 
d="M87 47l60 192q43 -34 128.5 -58t164.5 -24q119 0 191 58t72 160q0 85 -54.5 150t-186 160t-191.5 177t-60 205q0 198 125.5 310.5t324.5 112.5q225 0 299 -39l-57 -194q-28 23 -94 43t-123 20q-128 0 -202 -58t-74 -167q0 -46 23.5 -89t63.5 -77.5t164.5 -127.5
t183 -189.5t58.5 -224.5q0 -199 -133.5 -305.5t-352.5 -106.5q-78 0 -176 22t-154 50zM810 1582l-130 192l-211 -192h-172l361 341h107l242 -341h-197z" />
    <glyph glyph-name="scircumflex" unicode="&#x15d;" horiz-adv-x="829" 
d="M9 64l99 180q39 -39 112 -71.5t125 -32.5q89 0 147 48t58 130q0 42 -30.5 75t-105.5 76l-141 78q-65 37 -97.5 93.5t-32.5 120.5q0 149 116 239.5t285 90.5q117 0 282 -74l-85 -176q-98 90 -211 90q-75 0 -129.5 -38.5t-54.5 -101.5q0 -46 31 -79t107 -74l140 -76
q65 -35 97 -90t32 -120q0 -172 -124.5 -272t-316.5 -100q-169 0 -303 84zM680 1222l-130 192l-211 -192h-172l361 341h107l242 -341h-197z" />
    <glyph glyph-name="Tbar" unicode="&#x166;" horiz-adv-x="1189" 
d="M1342 1465l-32 -180h-482l-89 -505h316l-27 -147h-315l-111 -633h-205l111 633h-315l26 147h316l88 505h-466l32 180h1153z" />
    <glyph glyph-name="tbar" unicode="&#x167;" horiz-adv-x="860" 
d="M837 1071l-32 -150h-294l-54 -262h264l-29 -135h-263l-27 -135q-16 -77 -16 -110q0 -139 149 -139q74 0 162 39l-7 -169q-83 -30 -264 -30q-113 0 -177.5 70.5t-64.5 193.5q0 31 9 69l44 211h-135l31 135h132l56 262h-128l34 150h125l45 224l217 82l-71 -306h294z" />
    <glyph glyph-name="Utilde" unicode="&#x168;" horiz-adv-x="1328" 
d="M324 1465h210l-180 -1003q-6 -33 -6 -63q0 -113 68.5 -178.5t186.5 -65.5q146 0 242 83t122 229l179 998h206l-180 -1019q-39 -222 -199.5 -346.5t-399.5 -124.5q-203 0 -321 99t-118 261q0 53 10 112zM1202 1792q-90 -207 -229 -207q-60 0 -130 38.5t-101 38.5
q-71 0 -122 -77h-91q30 84 91.5 145.5t129.5 61.5q76 0 143 -38.5t99 -38.5q82 0 122 77h88z" />
    <glyph glyph-name="utilde" unicode="&#x169;" horiz-adv-x="1140" 
d="M431 1071l-125 -683q-8 -44 -8 -81q0 -167 174 -167q107 0 205.5 80t118.5 191l122 660h200l-196 -1071h-200l28 151q-112 -171 -388 -171q-125 0 -195 74t-70 210q0 48 10 104l124 703h200zM1042 1432q-90 -207 -229 -207q-60 0 -130 38.5t-101 38.5q-71 0 -122 -77h-91
q30 84 91.5 145.5t129.5 61.5q76 0 143 -38.5t99 -38.5q82 0 122 77h88z" />
    <glyph glyph-name="Umacron" unicode="&#x16a;" horiz-adv-x="1328" 
d="M324 1465h210l-180 -1003q-6 -33 -6 -63q0 -113 68.5 -178.5t186.5 -65.5q146 0 242 83t122 229l179 998h206l-180 -1019q-39 -222 -199.5 -346.5t-399.5 -124.5q-203 0 -321 99t-118 261q0 53 10 112zM1246 1726l-25 -141h-738l25 141h738z" />
    <glyph glyph-name="umacron" unicode="&#x16b;" horiz-adv-x="1140" 
d="M431 1071l-125 -683q-8 -44 -8 -81q0 -167 174 -167q107 0 205.5 80t118.5 191l122 660h200l-196 -1071h-200l28 151q-112 -171 -388 -171q-125 0 -195 74t-70 210q0 48 10 104l124 703h200zM1091 1366l-25 -141h-738l25 141h738z" />
    <glyph glyph-name="Ubreve" unicode="&#x16c;" horiz-adv-x="1328" 
d="M324 1465h210l-180 -1003q-6 -33 -6 -63q0 -113 68.5 -178.5t186.5 -65.5q146 0 242 83t122 229l179 998h206l-180 -1019q-39 -222 -199.5 -346.5t-399.5 -124.5q-203 0 -321 99t-118 261q0 53 10 112zM1227 1910q-57 -325 -392 -325q-278 0 -278 252q0 35 7 73h141
q-7 -29 -7 -54q0 -117 165 -117q191 0 221 171h143z" />
    <glyph glyph-name="ubreve" unicode="&#x16d;" horiz-adv-x="1140" 
d="M431 1071l-125 -683q-8 -44 -8 -81q0 -167 174 -167q107 0 205.5 80t118.5 191l122 660h200l-196 -1071h-200l28 151q-112 -171 -388 -171q-125 0 -195 74t-70 210q0 48 10 104l124 703h200zM1087 1550q-57 -325 -392 -325q-278 0 -278 252q0 35 7 73h141q-7 -29 -7 -54
q0 -117 165 -117q191 0 221 171h143z" />
    <glyph glyph-name="Uogonek" unicode="&#x172;" horiz-adv-x="1328" 
d="M1352 1465l-180 -1019q-41 -229 -204 -352q-126 -95 -302 -114q-85 -52 -85 -130q0 -77 96 -77q66 0 139 38v-149q-103 -35 -169 -35q-98 0 -163 51q-70 56 -70 151q0 84 45 155q-128 22 -213 96q-112 98 -112 256q0 54 10 110l180 1019h210l-180 -1002q-6 -33 -6 -64
q0 -116 72 -182q67 -61 182 -61q148 0 243 81.5t122 229.5l179 998h206z" />
    <glyph glyph-name="uogonek" unicode="&#x173;" horiz-adv-x="1140" 
d="M1118 1071l-196 -1071q-123 -56 -123 -150q0 -77 96 -77q66 0 139 38v-149q-103 -35 -169 -35q-98 0 -163 51q-70 56 -70 151q0 125 100 223l18 100q-111 -172 -388 -172q-118 0 -189 69q-76 74 -76 215q0 49 10 105l124 702h200l-127 -684q-6 -33 -6 -80
q0 -168 173 -168q104 0 201 76q104 81 125 197l121 659h200z" />
    <glyph glyph-name="Wcircumflex" unicode="&#x174;" horiz-adv-x="1745" 
d="M1187 -20h-63l-169 989l-506 -989h-63l-200 1485h208l119 -990l497 990h70l147 -985l460 985h218zM1210 1582l-130 192l-211 -192h-172l361 341h107l242 -341h-197z" />
    <glyph glyph-name="wcircumflex" unicode="&#x175;" horiz-adv-x="1524" 
d="M1042 -20h-50l-199 697l-428 -697h-50l-200 1094h193l117 -681l399 681h50l192 -686l336 686h197zM1020 1222l-130 192l-211 -192h-172l361 341h107l242 -341h-197z" />
    <glyph glyph-name="Ycircumflex" unicode="&#x176;" horiz-adv-x="1168" 
d="M714 656l-116 -656h-200l116 656l-332 809h209l249 -625l461 625h226zM930 1582l-130 192l-211 -192h-172l361 341h107l242 -341h-197z" />
    <glyph glyph-name="ycircumflex" unicode="&#x177;" horiz-adv-x="1010" 
d="M31 -420v191q186 0 264 56t112 168q-141 0 -187 278l-134 798h207l118 -777q17 -115 82 -115l386 892h216l-537 -1199q-68 -152 -181 -222t-346 -70zM756 1222l-130 192l-211 -192h-172l361 341h107l242 -341h-197z" />
    <glyph glyph-name="longs" unicode="&#x17f;" horiz-adv-x="715" 
d="M104 0l183 1071q74 438 440 438q83 0 143 -28l-36 -150q-72 29 -119 29q-182 0 -230 -289l-176 -1071h-205z" />
    <glyph glyph-name="Aringacute" unicode="&#x1fa;" horiz-adv-x="1251" 
d="M1168 0h-232l-46 309h-522l-172 -309h-228l820 1322q-157 29 -157 173q0 73 67 124q61 46 138 52l103 207h197l-179 -225q118 -47 118 -158q0 -155 -185 -176zM988 1495q0 44 -48 69q-39 20 -87 20q-47 0 -86 -21q-48 -25 -48 -68q0 -90 134 -90q51 0 88 20q47 24 47 70z
M867 456l-88 576l-326 -576h414z" />
    <glyph glyph-name="aringacute" unicode="&#x1fb;" horiz-adv-x="1076" 
d="M1052 1004l-131 -623q-8 -38 -8 -92q0 -156 49 -289h-194q-16 32 -34 108q-47 -57 -140 -92.5t-197 -35.5q-158 0 -246.5 93.5t-88.5 268.5q0 294 173.5 521.5t446.5 227.5q258 0 370 -87zM842 893q-27 43 -182 43q-158 0 -278 -168t-120 -420q0 -213 190 -213
q99 0 186 102.5t121 262.5zM769 1172q-100 0 -161 47t-61 131q0 71 68 124t154 53q92 0 157 -49.5t65 -127.5q0 -81 -61.5 -129.5t-160.5 -48.5zM769 1439q-53 0 -93.5 -25.5t-40.5 -63.5q0 -90 134 -90q56 0 95.5 24t39.5 66q0 40 -40.5 64.5t-94.5 24.5zM1108 1931
l-226 -333h-140l169 333h197z" />
    <glyph glyph-name="AEacute" unicode="&#x1fc;" horiz-adv-x="1775" 
d="M782 307h-438l-193 -307h-234l963 1465h981l-33 -180h-666l-69 -407h474l-30 -170h-474l-94 -528h654l-31 -180h-864zM948 1252l-514 -796h374zM1557 1918l-226 -333h-140l169 333h197z" />
    <glyph glyph-name="aeacute" unicode="&#x1fd;" horiz-adv-x="1730" 
d="M959 506q-8 -48 -8 -92q0 -132 74 -203t207 -71q118 0 238 87l-21 -194q-160 -53 -282 -53q-165 0 -267 120q-4 -59 -9 -100l-188 -1q2 40 21 154q-43 -77 -133 -125t-194 -48q-158 0 -246.5 93.5t-88.5 268.5q0 294 173.5 521.5t446.5 227.5q209 0 340 -41l-11 -71
q154 112 354 112q159 0 254 -68.5t95 -193.5q0 -175 -148 -276t-364 -101q-143 0 -243 54zM829 904q-88 32 -169 32q-171 0 -284.5 -172t-113.5 -416q0 -213 180 -213q217 -2 317 364zM992 644q77 -34 179 -34q148 0 251 54.5t103 153.5q0 113 -210 113q-101 0 -190 -83.5
t-133 -203.5zM1248 1558l-226 -333h-140l169 333h197z" />
    <glyph glyph-name="Oslashacute" unicode="&#x1fe;" horiz-adv-x="1380" 
d="M1537 1491l-211 -241q60 -120 60 -294q0 -428 -209 -704.5t-577 -276.5q-180 0 -300 107l-89 -102h-213l203 230q-74 140 -74 328q0 386 206 669.5t535 283.5q233 0 365 -118l104 118h200zM361 390l734 827q-81 95 -245 95q-224 0 -367 -244.5t-143 -501.5q0 -97 21 -176
zM1163 1065l-726 -827q74 -83 195 -83q249 0 395.5 231t146.5 549q0 72 -11 130zM1155 1918l-226 -333h-140l169 333h197z" />
    <glyph glyph-name="oslashacute" unicode="&#x1ff;" horiz-adv-x="1099" 
d="M1023 1091h168l-172 -179q50 -93 50 -226q0 -154 -61.5 -320t-201 -276t-334.5 -110q-166 0 -267 82l-79 -82h-182l179 184q-50 95 -50 230q0 287 168 492t427 205q173 0 274 -84zM280 326l530 546q-57 64 -169 64q-115 0 -202.5 -82t-126.5 -209.5t-39 -237.5
q0 -44 7 -81zM863 749l-526 -549q58 -65 163 -65q118 0 204 84t125 214.5t39 242.5q0 40 -5 73zM917 1558l-226 -333h-140l169 333h197z" />
    <glyph glyph-name="Wgrave" unicode="&#x1e80;" horiz-adv-x="1745" 
d="M1187 -20h-63l-169 989l-506 -989h-63l-200 1485h208l119 -990l497 990h70l147 -985l460 985h218zM1061 1585l-156 333h197l59 -333h-100z" />
    <glyph glyph-name="wgrave" unicode="&#x1e81;" horiz-adv-x="1524" 
d="M1042 -20h-50l-199 697l-428 -697h-50l-200 1094h193l117 -681l399 681h50l192 -686l336 686h197zM849 1225l-156 333h197l59 -333h-100z" />
    <glyph glyph-name="Wacute" unicode="&#x1e82;" horiz-adv-x="1745" 
d="M1187 -20h-63l-169 989l-506 -989h-63l-200 1485h208l119 -990l497 990h70l147 -985l460 985h218zM1287 1918l-226 -333h-140l169 333h197z" />
    <glyph glyph-name="wacute" unicode="&#x1e83;" horiz-adv-x="1524" 
d="M1042 -20h-50l-199 697l-428 -697h-50l-200 1094h193l117 -681l399 681h50l192 -686l336 686h197zM1107 1558l-226 -333h-140l169 333h197z" />
    <glyph glyph-name="Wdieresis" unicode="&#x1e84;" horiz-adv-x="1745" 
d="M1187 -20h-63l-169 989l-506 -989h-63l-200 1485h208l119 -990l497 990h70l147 -985l460 985h218zM830 1813q47 0 79.5 -32.5t32.5 -79.5t-33 -80t-79 -33q-47 0 -80 33t-33 80t33 79.5t80 32.5zM1302 1813q47 0 80 -32.5t33 -79.5t-33 -80t-80 -33t-79.5 33t-32.5 80
t32.5 79.5t79.5 32.5z" />
    <glyph glyph-name="wdieresis" unicode="&#x1e85;" horiz-adv-x="1524" 
d="M1042 -20h-50l-199 697l-428 -697h-50l-200 1094h193l117 -681l399 681h50l192 -686l336 686h197zM640 1453q47 0 79.5 -32.5t32.5 -79.5t-33 -80t-79 -33q-47 0 -80 33t-33 80t33 79.5t80 32.5zM1112 1453q47 0 80 -32.5t33 -79.5t-33 -80t-80 -33t-79.5 33t-32.5 80
t32.5 79.5t79.5 32.5z" />
    <glyph glyph-name="Ygrave" unicode="&#x1ef2;" horiz-adv-x="1168" 
d="M714 656l-116 -656h-200l116 656l-332 809h209l249 -625l461 625h226zM746 1585l-156 333h197l59 -333h-100z" />
    <glyph glyph-name="ygrave" unicode="&#x1ef3;" horiz-adv-x="1010" 
d="M31 -420v191q186 0 264 56t112 168q-141 0 -187 278l-134 798h207l118 -777q17 -115 82 -115l386 892h216l-537 -1199q-68 -152 -181 -222t-346 -70zM561 1225l-156 333h197l59 -333h-100z" />
    <glyph glyph-name="afii00208" unicode="&#x2015;" horiz-adv-x="1504" 
d="M85 532l21 132h1308l-20 -132h-1309z" />
    <glyph glyph-name="underscoredbl" unicode="&#x2017;" horiz-adv-x="1073" 
d="M1077 -254h-1085v129h1085v-129zM1077 -504h-1085v129h1085v-129z" />
    <glyph glyph-name="minute" unicode="&#x2032;" horiz-adv-x="327" 
d="M293 1056h-133l166 411h184z" />
    <glyph glyph-name="second" unicode="&#x2033;" horiz-adv-x="694" 
d="M323 1056h-133l166 411h184zM623 1056h-133l166 411h184z" />
    <glyph glyph-name="exclamdbl" unicode="&#x203c;" horiz-adv-x="1248" 
d="M351 382h-71q6 364 18 490t27 209l73 410h226l-71 -409q-33 -192 -202 -700zM274 263q59 0 100.5 -41.5t41.5 -100.5t-41.5 -100t-100.5 -41t-100.5 41t-41.5 100t41.5 100.5t100.5 41.5zM847 382h-71q6 364 18 490t27 209l73 410h226l-71 -409q-33 -192 -202 -700z
M770 263q59 0 100.5 -41.5t41.5 -100.5t-41.5 -100t-100.5 -41t-100.5 41t-41.5 100t41.5 100.5t100.5 41.5z" />
    <glyph glyph-name="radicalex" unicode="&#x203e;" 
d="M785 1471v-122h-791v122h791z" />
    <glyph glyph-name="nsuperior" unicode="&#x207f;" horiz-adv-x="924" 
d="M905 1278q0 -43 -10 -100l-82 -457h-156l78 424q10 56 10 100q0 123 -118 123q-97 0 -174 -98l-101 -549h-155l102 567q4 23 4 49q0 70 -14 127l145 27q9 -45 13 -73v-3q4 -21 4 -26q78 102 241 102q213 0 213 -213z" />
    <glyph glyph-name="afii08941" unicode="&#x20a4;" horiz-adv-x="1084" 
d="M823 657l-20 -135h-281q-39 -279 -133 -348l107 -39q73 -24 174 -24q172 0 260 122l114 -127q-48 -81 -167 -130q-105 -44 -211 -44q-100 0 -205.5 32t-179.5 32q-72 0 -172 -14l-29 151q24 10 98 74q113 98 148 315h-189l23 135h182q8 63 8 156h-170l19 135h145
q0 533 500 533q156 0 239 -78l-96 -154q-86 64 -192 64q-256 0 -256 -320q0 -26 2 -45h317l-20 -135h-293q0 -82 -8 -156h286z" />
    <glyph glyph-name="peseta" unicode="&#x20a7;" horiz-adv-x="2273" 
d="M2269 1018l-86 -174q-86 88 -190 88q-60 0 -107 -38q-53 -42 -53 -110q0 -76 94 -138l176 -112q95 -78 95 -192q0 -175 -135 -273q-121 -89 -306 -89q-135 0 -241 81q-97 -81 -240 -81q-116 0 -180 68t-64 185q0 43 10 93l123 596h-131q-31 -115 -100 -199
q-150 -182 -410 -182q-93 0 -168 22l-104 -563h-207l270 1464q187 23 277 23q465 0 465 -395q0 -4 -1 -11t-1 -10h143l43 223l213 82l-70 -305h234l-31 -149h-235l-109 -543q-12 -60 -12 -105q0 -135 125 -135q87 0 198 125q97 -125 232 -125q87 0 146 46q65 49 65 132
q0 79 -94 138l-173 110q-94 80 -94 207q0 144 116 235q107 85 253 85q134 0 264 -74zM854 1032q2 24 2 46q0 231 -227 231q-64 0 -142 -19l-98 -547q44 -26 127 -26q307 0 338 315z" />
    <glyph glyph-name="afii61248" unicode="&#x2105;" horiz-adv-x="1430" 
d="M730 1333q-74 47 -149 47q-129 0 -203 -84q-72 -80 -72 -196q0 -76 49 -119q40 -35 103 -35q90 0 196 62l-18 -142q-91 -37 -197 -37q-121 0 -195 65q-77 67 -77 187q0 182 114 299t281 117q98 0 168 -39v-125zM1365 1491l-1063 -1526h-137l1063 1526h137zM1381 377
q0 -173 -94 -287q-101 -121 -270 -121q-123 0 -192.5 69.5t-69.5 192.5q0 174 91 285q100 121 273 121q124 0 193 -68.5t69 -191.5zM1242 375q0 145 -137 145q-107 0 -163 -92q-48 -78 -48 -197q0 -145 137 -145q108 0 164 93q47 77 47 196z" />
    <glyph glyph-name="afii61289" unicode="&#x2113;" 
d="M1034 1200q-27 -138 -220 -344q-142 -153 -311 -282l-21 -108q-18 -90 -18 -152q0 -74 16 -108q32 -71 139 -71q70 0 168 85l75 -138q-45 -41 -134.5 -71.5t-154.5 -30.5q-208 0 -269 115q-34 64 -34 170q0 87 22 201l-96 -51l-27 162q94 48 162 88l28 147
q56 289 125 431q122 248 332 248q226 0 226 -212q0 -37 -8 -79zM843 1205q5 30 5 53q0 78 -67 78q-77 0 -137 -140q-38 -91 -60 -206l-34 -175q263 220 293 390z" />
    <glyph glyph-name="afii61352" unicode="&#x2116;" horiz-adv-x="1831" 
d="M1812 645q-27 -151 -110 -240q-93 -100 -238 -100q-119 0 -182 77q-57 69 -57 187q0 42 8 88q25 143 114 235q96 99 234 99q239 0 239 -255q0 -43 -8 -91zM1677 131l-22 -131h-490l23 131h489zM1249 1464l-260 -1478h-67l-492 1026l-178 -1012h-184l260 1479h67
l492 -1026l180 1011h182zM1663 655q8 46 8 81q0 126 -110 126q-141 0 -179 -215q-8 -46 -8 -82q0 -131 111 -131q139 0 178 221z" />
    <glyph glyph-name="estimated" unicode="&#x212e;" horiz-adv-x="1125" 
d="M1063 537h-814v-371q151 -123 309 -123q94 0 220 45t166 93l47 -53q-163 -148 -430 -148q-217 0 -358.5 149t-141.5 394q0 254 147.5 411t354.5 157q231 0 365.5 -166.5t134.5 -387.5zM250 886v-281h630v281q-120 142 -314 142q-185 0 -316 -142z" />
    <glyph glyph-name="oneeighth" unicode="&#x215b;" horiz-adv-x="1668" 
d="M393 -35h-129l975 1526h127zM296 595l122 674l-208 -112l20 113q214 99 319 208h36l-156 -883h-133zM1176 -20q-99 0 -161 51q-67 55 -67 154q0 96 60.5 181t146.5 119q-94 57 -94 164q0 119 83 186q76 60 195 60q86 0 142 -45q61 -49 61 -135q0 -70 -51 -141
q-49 -67 -115 -101q123 -76 123 -191q0 -139 -96 -223q-91 -79 -227 -79zM1319 778q-125 0 -125 -116q0 -71 113 -134q102 82 102 170q0 80 -90 80zM1247 430q-166 -81 -166 -221q0 -112 115 -112q75 0 122.5 46.5t47.5 123.5q0 90 -119 163z" />
    <glyph glyph-name="threeeighths" unicode="&#x215c;" horiz-adv-x="1668" 
d="M431 -35h-129l975 1526h127zM1214 -20q-99 0 -161 51q-67 55 -67 154q0 96 60.5 181t146.5 119q-94 57 -94 164q0 117 83 184q77 62 195 62q86 0 142 -45q61 -49 61 -135q0 -70 -51 -141q-49 -67 -115 -101q123 -76 123 -191q0 -139 -95 -223q-91 -79 -228 -79zM1357 778
q-45 0 -84 -30q-41 -33 -41 -80q0 -75 113 -140q102 82 102 170q0 80 -90 80zM1285 430q-166 -81 -166 -221q0 -112 115 -112q72 0 121 47t49 126q0 87 -119 160zM323 585q-129 0 -193 72l78 103q39 -55 137 -55q84 0 138.5 46.5t54.5 129.5q0 129 -160 129l18 102
q183 0 183 168q0 91 -123 91q-84 0 -131 -46l-37 92q68 74 201 74q91 0 153 -44q70 -50 70 -138q0 -79 -50.5 -149t-123.5 -95q129 -44 129 -178q0 -145 -102 -227q-94 -75 -242 -75z" />
    <glyph glyph-name="fiveeighths" unicode="&#x215d;" horiz-adv-x="1668" 
d="M431 -35h-129l975 1526h127zM1214 -20q-99 0 -161 51q-67 55 -67 154q0 96 60.5 181t146.5 119q-94 57 -94 164q0 117 83 184q77 62 195 62q86 0 142 -45q61 -49 61 -135q0 -70 -51 -141q-49 -67 -115 -101q123 -76 123 -191q0 -139 -95 -223q-91 -79 -228 -79zM1357 778
q-45 0 -84 -30q-41 -33 -41 -80q0 -75 113 -140q102 82 102 170q0 80 -90 80zM1285 430q-166 -81 -166 -221q0 -112 115 -112q72 0 121 47t49 123q0 90 -119 163zM245 1016l-35 28l76 437h438l-22 -123h-324l-33 -195q47 33 117 33q99 0 161 -62.5t62 -160.5
q0 -174 -99 -280q-102 -107 -274 -107q-122 0 -192 67l65 111q63 -59 148 -59q100 0 160 67q57 65 57 166q0 139 -150 139q-87 0 -155 -61z" />
    <glyph glyph-name="seveneighths" unicode="&#x215e;" horiz-adv-x="1668" 
d="M393 -35h-129l975 1526h127zM1176 -20q-99 0 -161 51q-67 55 -67 154q0 96 60.5 181t146.5 119q-94 57 -94 164q0 117 83 184q77 62 195 62q86 0 142 -45q61 -49 61 -135q0 -70 -51 -141q-49 -67 -115 -101q123 -76 123 -191q0 -139 -95 -223q-91 -79 -228 -79zM1319 778
q-45 0 -84 -30q-41 -33 -41 -80q0 -75 113 -140q102 82 102 170q0 80 -90 80zM1247 430q-166 -81 -166 -221q0 -112 115 -112q72 0 121 47t49 123q0 90 -119 163zM367 596h-154q169 344 192 388q117 225 222 372h-404l23 125h569l-6 -47q-110 -157 -238 -411
q-36 -71 -204 -427z" />
    <glyph glyph-name="H22073" unicode="&#x25a1;" horiz-adv-x="1237" 
d="M146 944h944v-944h-944v944zM222 868v-792h792v792h-792z" />
    <glyph glyph-name="H18543" unicode="&#x25aa;" horiz-adv-x="726" 
d="M594 908v-463h-463v463h463z" />
    <glyph glyph-name="H18551" unicode="&#x25ab;" horiz-adv-x="726" 
d="M594 908v-463h-463v463h463zM518 832h-311v-311h311v311z" />
    <glyph glyph-name="H18533" unicode="&#x25cf;" horiz-adv-x="1237" 
d="M177 576q0 183 129 312t312 129q182 0 311 -129t129 -312q0 -182 -129 -311t-311 -129q-183 0 -312 129t-129 311z" />
    <glyph glyph-name="openbullet" unicode="&#x25e6;" horiz-adv-x="726" 
d="M363 928q104 0 177.5 -73.5t73.5 -177.5t-73.5 -177.5t-177.5 -73.5t-177.5 73.5t-73.5 177.5t73 177.5t178 73.5zM363 852q-73 0 -124 -51.5t-51 -123.5q0 -73 51.5 -124t123.5 -51t123.5 51t51.5 124q0 72 -51 123.5t-124 51.5z" />
    <glyph glyph-name="quotereversed" unicode="&#x201b;" horiz-adv-x="752" 
d="M482 1109q2 -30 22 -62l51 -80l-95 -66q-134 152 -134 330q0 74 26 146q49 133 156 133q25 0 54 -7q104 -28 103 -110q0 -98 -94.5 -146.5t-88.5 -137.5z" />
    <glyph glyph-name="Scommaaccent" unicode="&#x218;" horiz-adv-x="985" 
d="M87 47l60 192q43 -34 128.5 -58t164.5 -24q119 0 191 58t72 160q0 85 -54.5 150t-186 160t-191.5 177t-60 205q0 198 125.5 310.5t324.5 112.5q225 0 299 -39l-57 -194q-28 23 -94 43t-123 20q-128 0 -202 -58t-74 -167q0 -46 23.5 -89t63.5 -77.5t164.5 -127.5
t183 -189.5t58.5 -224.5q0 -199 -133.5 -305.5t-352.5 -106.5q-78 0 -176 22t-154 50zM338 -527l-40 68q82 54 93 77.5t11 46.5q0 26 -27.5 60.5t-27.5 62.5q0 103 97 103q111 0 111 -115q0 -91 -61 -174.5t-156 -128.5z" />
    <glyph glyph-name="scommaaccent" unicode="&#x219;" horiz-adv-x="829" 
d="M9 64l99 180q39 -39 112 -71.5t125 -32.5q89 0 147 48t58 130q0 42 -30.5 75t-105.5 76l-141 78q-65 37 -97.5 93.5t-32.5 120.5q0 149 116 239.5t285 90.5q117 0 282 -74l-85 -176q-98 90 -211 90q-75 0 -129.5 -38.5t-54.5 -101.5q0 -46 31 -79t107 -74l140 -76
q65 -35 97 -90t32 -120q0 -172 -124.5 -272t-316.5 -100q-169 0 -303 84zM230 -527l-40 68q82 54 93 77.5t11 46.5q0 26 -27.5 60.5t-27.5 62.5q0 103 97 103q111 0 111 -115q0 -91 -61 -174.5t-156 -128.5z" />
    <glyph glyph-name="Tcedilla" unicode="&#x162;" horiz-adv-x="1189" 
d="M828 1285l-226 -1285h-205l226 1285h-466l32 180h1153l-32 -180h-482zM281 -455l-8 99q88 0 147 32t59 90t-79 58l21 120q87 0 133.5 -44t46.5 -117q0 -112 -91.5 -175t-228.5 -63z" />
    <glyph glyph-name="tcedilla" unicode="&#x163;" horiz-adv-x="860" 
d="M321 921h-124l32 150h124l44 224l217 82l-71 -306h294l-32 -150h-294l-112 -532q-13 -62 -13 -96q0 -153 152 -153q74 0 159 37l-7 -167q-82 -30 -265 -30q-114 0 -177.5 70.5t-63.5 193.5q0 28 9 69zM168 -455l-8 99q88 0 147 32t59 90t-79 58l21 120q87 0 133.5 -44
t46.5 -117q0 -112 -91.5 -175t-228.5 -63z" />
    <glyph glyph-name="dottediacute" horiz-adv-x="628" 
d="M445 1491q55 0 94 -38.5t39 -94.5q0 -55 -39 -93.5t-94 -38.5t-94 38.5t-39 93.5q0 56 39 94.5t94 38.5zM138 0l162 911h-142l35 157h327l-189 -1068h-193zM734 1918l-226 -333h-140l169 333h197z" />
    </font>
</defs>
</svg>
